&title=堕落ちゃん
&artist=¿?shimon
&first=-0.05
&des=Tsuuisa
&des_5=Tsuuisa
&lv_5=14
&inote_5=(180){4},,Ch[4:15],B8,
B1,B7,B2,B6,
B3,B5,B4,A7/E7,
A2/E3,E6/A5,E4/A4,A8/B8,
{2}A1/B1,{8}2-5[8:1],8,1/2-6[8:1],{32}E1,B1,,,{4}2,
7h[4:1],{8},1,8,{64}E1,,,B8,,,,,{4}6bh[8:1],
3bh[8:1],{8}7-4[8:1],1,8/7-3[8:1],{32}E1,B8,,,{4}7,
2h[4:1],{8},8,1,{64}E1,,,B1,,,,,{4}3bh[8:1],
6bh[8:1],{8}3-8[8:1],5,4/3-7[8:1],{32}E5,B4,,,{4}3,
6h[4:1],{8},4,5,{64}E5,,,B5,,,,,{4}7bh[8:1],
2bh[8:1],{8}6-1[8:1],4,5/6-2[8:1],{32}E5,B5,,,{4}6,
3h[4:1],{32},4b,5,6,7,,,2b,3,4,{16}5,{32},,,,1b,
2,3,4,,,,8b,1,2,{16}3,,,,,,,,,,,{4}5h[2:3],
4,4,4,
4,4,{2}4,
{4}1h[2:3],8,8,8,
8,8,{2}8,
{4}5h[4:1],4h[2:1],{2}3h[4:3],
{1}4h[4:3],
{2}6h[4:1],3h[8:3],
{8}3,,,8h[8:1],{4},,,{32}1bx,
2x,3x,4x,5x,6x,7x,8xh[32:1],,,,,{8}2-4[8:1],2,7-5[8:1],
7,1-3[8:1],{4}1,{8}5-1[8:1],5/1x-5[8:1],,,,,1-4[8:1],
1,8-4[8:1],8,,,3,
2-5[8:1],2,4-7[8:1],{2}7x-4[8:1],
{8},,3<6[8:1],6>2[8:1],{4}3,{8}7-4[8:1],7,
1-5[8:1],1,8-3[8:1],8,1-6[8:1],1,8-4[8:1],8,
,,{4}1-5[8:1],1/8-4[8:1],8/1-5[8:1],
1/8-4[8:1],8/1-5[8:1],1b-3[8:1],1b-7[8:1],
{32}5x,4x,3x,2x,1x,,,1bxh[32:1],,2x,3x,4x,5x,6x,,,3x,4x,5x,6x,{16}7x,{32}4x,5x,6x,7x,{16}8x,{32}5x,6x,7x,8x,
{2}1x-5b[0.6667##0.1667],{4}1b-3[8:1],1/7-4[8:1],
7/1-5[8:1],1-3<4[8:1]/5x-7>8[8:1],1-5-1[4:1],1b,
{8},,,7-5[8:1],7,4-8[8:1],4,1-3[8:1],
1,,,3-1[8:1],3,8-4[8:1],8,5-7[8:1],
{2}5,{4}1<6[8:1]/5>2[8:1],1-5[4:1]/5-1[4:1],
{1}1pp5[8:5]/5-7-1b[4:1],
{4},,7-4[8:1],7/8-3[8:1],
8/1-6b[8:1],1/2-5b[8:1],2/3-8b[8:1],3/4-7b[8:1],
{2}5-2b[8:1],{8}7>2[8:1],6,5,4<7[8:1],
3,2,1>4[8:1],8,7,6<1[8:1],5,4,
{4}3-7[8:1],3,{8}2<7[8:1],3,4,5>2[8:1],
6,7,8<5[8:1],1,2,3>8[8:1],4,5,
{4}6-2[8:1],6,{8}3<6[8:1],2,1,8>3[8:1],
7,6,5<8[8:1],4,3,2>5[8:1],1,8,
{4}7-3[8:1],7,2h[4:1],6h[4:1],
,4h[4:1],{8}5h[4:1],3,2,1h[4:1],
2,3,{4}4h[4:1],Ch[8:15],E6,
E4,E8,E2,E7/A7,
A2/E3,B8/B1,{8}2-5[8:1],8,1/2-6[8:1],{32}E1,B1,,,{4}2,
7h[4:1],{8},1,8,{64}E1,,,B8,,,,,{4}6bh[8:1],
3bh[8:1],{8}7-4[8:1],1,8/7-3[8:1],{32}E1,B8,,,{4}7,
2h[4:1],{8},8,1,{64}E1,,,B1,,,,,{4}3bh[8:1],
6bh[8:1],{8}3-8[8:1],5,4/3-7[8:1],{32}E5,B4,,,{4}3,
6h[4:1],{8},4,5,{64}E5,,,B5,,,,,{4}7bh[8:1],
2bh[8:1],{8}6-1[8:1],4,5/6-2[8:1],{32}E5,B5,,,{4}6,
3h[4:1],{32}4bx,5,6,7,,,,1bx,2,3,{16}4,{32},,,8bx,
1,2,{16}3,{32},,,7bx,8,1,2,3,4,,,7bx,6,5,4,3,,,,7bx,8,1,{16}2,{32},,,7bx,
6,5,{16}4,{32}7bx,8x,1x,7bx,6x,5x,,7bx-3b[1.2083##0.1667],8x,1x,{4},,,{16},{4}7b,
{8}1-5[8:1],,,2-4[8:1],
{2}6-8[8:1],{8}5-1[8:1],,,7-3[8:1],
{2}2-6[8:1],{8}4-8[8:1],,,7-4[8:1],
1-5[8:1],7,{4}1,{2}3-7[8:1],
{8},6,{4}6,{8}5/7,,,3,
2/4,7,{4}8/6,{8}5/3,,,1,
{4}8/2,8/2,7/5,{8}8/6,7,
1/3,2,7/5,6-2[8:69],,,,,,,,A7/E8,
{1},,{4},,,{8},A3/E4,
{1},,,,,{8}6bh[2:1],
,,C,
{2}A2,{8}5bh[2:1],,,C,
{2}A1,{8}4bh[2:1],,,C,
{2}A8,{8}3bh[2:1],,,C,
{2}A7,{8}2bh[2:1],,,C,
{2}A6,{8}1bh[2:1],,,C,
A5,,,8bqq8pp8[8:9],8bh[8:1],,,C,
{1}A4,
{32}1x,1x,1x,1x,1x,1x,1x,1x,1x,1x,1x,1x,,2x,3x,4x,5x,6x,5x,6x,5x,6x,5x,6x,5x,6x,5x,6x,5x,6x,{16}5x,
{32}5bx/1bx,4x,3x,2x,1x,8x,7x,6x,5bx/1bx,4x,3x,2x,1bx/5bx,8x,7x,6x,{2}5bx/1bx-5b[0.6667##0.1667],
{4}1b-3<4[8:1]/5b-7>8[8:1],1-5-1[4:1],1,2v5[8:1],
8-4[8:1],1-6[8:1],1-3<4[8:1]/5-7>8[8:1],5-1[8:1],
5-3[8:1],5-7[8:1],5-1[8:1],5-3[8:1]/1-7[8:1],
5-1[8:1],5-7[8:1]/1-3[8:1],5-1[8:1],5,
4-2<1[8:1]/8-6>5[8:1],4-8-4[4:1],4,3v8[8:1],
5-1[8:1],4-7[8:1],4-2<1[8:1]/8-6>5[8:1],8-4[8:1],
8-2[8:1],8-6[8:1],8-4[8:1],8-2b[8:1]/4-6b[8:1],
8-4b[8:1],8-6b[8:1]/4-2b[8:1],8-4b[8:1],8,
{8}7>2[8:1],6,5,4<7[8:1],3,2,1>4[8:1],8,
7,6<1[8:1],5,4,{4}3-7[8:1],3,
{8}2<7[8:1],3,4,5>2[8:1],6,7,8<5[8:1],1,
2,3>8[8:1],4,5,{4}6-2[8:1],6,
{8}3<6[8:1],2,1,8>3[8:1],7,6,5<8[8:1],4,
3,2>5[8:1],1,8,{4}7-3[8:1],7,
4h[4:1],8h[4:1],,6h[4:1],
{8}7h[4:1],5,4,3h[4:1],4,5,{4}6h[4:1],
{1}Ch[8:15],
E
