&title=Breakcore WTF!?
&artist=LeaF
&first=0.02
&des=Y
&lv_5=?
&inote_5=(250)
{4},,Chf[2:1],,
,8bh[2:1],,{8}2h[4:1],,6,62,,A3/A5,,1b/7b,E7f`E2f,,
3xh[8:1],,4h[8:1],,5h[8:1],,6,,4h[16:1],4h[16:1],5h[16:1],5h[16:1],6h[16:1],6h[16:1],7,,
68,17,28,3/1-5[8:1],,4,4w8b[8:1],,4b,,,,1x/7x,,,,
2b,2,4,3,6h/4,6,5,7,7,8,16,25,3-8b[8:1]/4-7b[8:1],,,,
1x,1,17,16,51,4,3,2,1-5[8:1],,1-7[8:1],,1,,{16}4,3,2,1,
{8}7b,7,5,6,3h/5,3,4,2,2,1,83,74,6-1b[8:1]/5-2b[8:1],,,,
8x,8,83,28,18,,78,,{24}6bh[2:1]/7x,8,1,2,3,4,5,,7,8,1,2,{8}3-5[8:1]`3?v5[8:1],,,,
{16}7b,,7,,8,,8,6,1h,,1,,4,,4,3,{8}5-8[8:1],,7<3[16:3]/5,,1,,2,2,
3x/4x,,6,5,5,7,3h[4:1],,4-6[8:1],4-7[8:1],4-1[8:1],4-2[8:1],A4f,,{16}7,6,5,4,
{16}2b,,2,,1,,1,,4,,6,4,,6,4,,{8}5-1[8:1],,2^5[8:1]/5,,8x,7h,6xbh,,
4b/7,,{16}5,6,5,6,4,5,4,5,3,4,3,4,25,16,7h[4:1]/8,,,,,,8,7,8,7,8,7,8,7,
{4}8b,,,,,,,,{8}6bh[4:1]/4bh[4:1],,,3bh[4:1]/5bh[4:1],,,1b/4b,,78,,6-8[8:1],6V42[16:3],6v1b[8:1],,,,
2,34,2,34,2,38,2,38,2,35,2,35,2,37,{16}2,8,2,8,
{8}1,24,1,62,1,28,{16}1-5[8:1],1,1,1,{8}1-7[8:1]*<8-6[8:1],,1-3[8:1]*>2-4[8:1],,1,,8b,,
4-6[8:1],7,4,8,8,17,62,{16}3,5,4h[8:1],,7,5,6h[8:1],,1,,4,,1,6,2x-5b[8:1],,,,
1b/2b,,,,7,4,7,4,6,,8,6,2,,35,,6h[8:1],,8,6h[8:1],,5,6h[8:1],,3,7,2,8,1xw5b[8:1],,,,
1b,,,,,,,,36,,3,4,3,,15,,8,,6,5,7,,3,,3,4,,1,6,,,,8,,47,,8,2,7,5,6,3,4,1,7,,26,,5v8[8:1],,
,,3>6[4:1],,,,,,,,,,,,
47,,5
,6,5,6,5,6,4,7,,7,1^7[8:1],,5,5,1-5[8:1],,6,6,1,,7,,8<4b[8:1]*>4b[8:1],,4,,A8f,,,,
1b/7b,,,,34,,34,,25,,7,7,5,,6,,2h[8:1],,4,2h[8:1],,1,2h[8:1],,5,3,5,3,4xw8[8:1],,,,
4b,,,,,,,,17,,57,,35,,13,,48,,7,5,6,,3,,4,3,,4,1xw5b[8:1],,,,
1b,,,,,,,,,,,,,,,,C,,,,5h[2:1]/3x,,,,A2`A3/D4/E4/E3/D3`B2,B1f,,,,,,,
{8}7b/8b,,4b/5b,,1b/2b,,3b/8b,2b/7b,{16}1b/6b,,,3b/5b,,,2b/8b,,{8}2b/8b,3b/7b,4bw8b[8:1]/6b,,4b`Cf,,,,,,,,25,5h[4:1]/2h[4:1],,,3-6[8:1]/4,,7,,
{16}78,,7,6,7,,7,,7,5,,5,6,,46,,35,,3,4,3,,3,,1<5[8:1]/3,,4,,1x,,,,
34,,3,1,3,,3,,3,7,,7,2,,25,,5,,3,,3,,4^7[8:1],,,,1,,1,,,,
28,,2,1,2,,2,,2,4,,4,3,,5>1[4:1]/3,,6,,7,,8,,,,8-4[8:1],,7,,6,,,,
63,,6,5,6,,6,,6,8,,8,7,,71,,2h[4:3]/6h[4:3],,,,,,,,,,,,,,,,
{24}6b>2[16:3]/2b<6[16:3],37,48,{16}51,,,,,,,,,,1,,1,,78,,,,35,,3,4,1,,28,,3p7b[8:1]/7p3b[8:1],,,,
3b<7[8:1]/7b>3[8:1],,,,,,,,,,,,1,,8,8,8-5[8:1]*-6b[8:1],,,,8^2[8:1]`8?v3[8:1],,,,8x,,,,6w2b[8:1],,6,,
2b<6[8:1]*>6[8:1],,,,,,,,,,5,,6,,6,3,4h[4:1],,,,2-7b[8:1],,2/5,,5V36[4:1],,,,,,,,
8bh[4:1],,,,6h[4:1],,,,5h[4:1],,,,3h[4:1],,,,1bh,,,1bh/A4f/E4/E5/B4,,,1bh/A6f/E6/E7/B6,,2xh[4:1]/8xh[4:1],,,,,,,,
{24}3b<7[16:3]/7b>3[16:3],62,51,{16}48,,,,,,,,,,8,,8,,21,,,,64,,6,5,8,,71,,6q2b[8:1]/2q6b[8:1],,,,
6b>2[8:1]/2b<6[8:1],,,,,,,,,,,,8,,1,1,1-4[8:1]*-3b[8:1],,,,1^7[8:1]`1?v6[8:1],,,,1x,,,,3w7b[8:1],,3,,
7b>3[8:1]*<3[8:1],,,,,,,,,,4,,3,,3,6,5h[4:1],,,,7-2b[8:1],,7/4,,4V63[4:1],,,,,,,,
1bh[4:1],,,,3h[4:1],,,,4h[4:1],,,,6h[4:1],,,,
{8}7b,8,{12}1,2,3,{16}4,5,6,7,{24}8,1,2,3,4,5,{16}6b,,,A1/B1/Cf/B5/A5,{8},,,,,,,,,,,,
28,,3bh[4:1]/7bh[4:1],,,3b/7b,,,2,6,4bh[4:1],,,5,5bh[4:1]/3h[4:1],,,,
2b,1,8,7,6,5,4,3,{12}5b,6,7,8,1,2,3,4,5,6,7,8,{16}3b,2,1,8,7,6,5,4,{24}6b,7,8,1,2,3,4,5,6,7,8,1,{32}4b,3,2,1,8,7,6,5,4,3,2,1,8,7,6,5,4,3,2,1,8,7,6,5,4,,,,,,,,
{24}7,1,7,1,7,1,7,1,7,1,7,1,7,1,7,1,7,1,Cf/A6/A2/B6/B2,,,,,,
{8}3x-8[8:1],4-7[8:1],3,4,1^4[8:1],6-2[8:1],1,6,5-2[8:1],8-4[8:1],5,8,1-5[8:1],6-8[8:1],1,6,
4,21,5,78,{16}2,1,3,,7,8,6,,{32}1b,2,3,4,8b,,,,1b,2,3,4,7b,,,,1b,2,3,4,6b,,,,,,,,,,,,
{8}6x-1[8:1],5-2[8:1],6,5,8^5[8:1],3-7[8:1],8,3,4-7[8:1],1-5[8:1],4,1,8,17,62,,
5,78,4,21,{16}78,,61,,25,,,,{32}1b,2,3,4,8b,,,,1b,2,3,4,7b,,,,1bw5b[8:1],2,3,4,6b,,,,,,,,,,,,
{8}3x-8[8:1],4-7[8:1],3,4,1h[8:1],,2h[8:1]/8h[8:1],,
{16}3h[8:1]/4h[8:1],,,4h[8:1]/6h[8:1],,,56,,7-4[8:1],,3-8[8:1],,7,,3,,
5-1[8:1],,2-4[8:1],,5,,2,,8h[16:1],,,5h[16:1]/6h[16:1],,,42,,
{32}1b,2,3,4,8b,,,,1b,2,3,4,7b,,,,1b-5[8:1]*-6[8:1],2,3,4,6b,,,,,,,,,,,,
{8}7,46,7,64,7,3,5V31b[8:1]*V71b[8:1],,5,,,,2-7[8:1]/6h[4:1],,,,5,,5,,4^2b[8:1]/6h[4:1],,,,{16}6,7,8,1,2,3,4,5,6,7,8,1,2,3,4,5,{24}2/6b,1,8,7,6,5,4/8b,3,2,1,8,7,6/2b,5,4,3,2,1,{8}4b/8,,
{8}7x-4[8:1],8-3[8:1],7,8,5-7[8:1]*-8[8:1],,5^2[8:1],,5,7,7-3[8:1],,7,1,1h[4:1],,
5,,{16}8,2,8,2,7,1,7,1,{8}6,26,2^8[8:1]/6-3[8:1],,2^5[8:1]/6-8[8:1],,2w6[8:1]/6,,2x,,
84,1,1,1,{16}12,,3,5,,3,5,,74,,6,5,,6,5,,8h[8:1],,1h[8:1],,2h[8:1],,3h[8:1],,
7,,4,6,4,6,4,,5,,3,4,2,,7,8,6-2b[8:1],,,,2<6[4:1]`2?>6[4:1],,,,,,,,,,,,
{8}3,25,3,52,{16}3,4,,4,1,,1,,2h[8:1]/8h[8:1],,,2h[8:1]/8h[8:1],,,28,,73,46,5,,28,,28,,7,1,6,2,4,,42,,51,,,,37,,37,,28,,6,5,7,,8,,16,,2,4,3,,3,,
{8}54,,,,,,,,56,,,,,,,,3h[4:1]/4h[4:1],,,,5h[4:1]/7h[4:1],,,,4^1b[125#16:1]/5^8b[126#16:1],,,,A5/D5f/A4,,,,,,,,,,1s5[8:1],,
1,,{16}47,,7,2,5,,53,,6,,26,,17,,1,8,2,2,4,4,3,,35,,6,,64,,3,,73,,8,3,6,,56,,4,,47,,8,,
28,,1,,17,,6,,53,,35,,53,,35,,2,5,8,,87,,6,1,4,,24,,3,,53,,6,,6,3,8,8,2,2,5,,1,,1,,5,,
2,,2,7,4,,84,,7,,2,,2,,6,,4p5[125#8:1]`5q4[125#8:1],,,,,,,,,,,,,,,,
{4}3b>6b[2:15]/6b,,,,,,,,,,,,,,,,,,,,,,,,,,,,,,,{8},{32}D3f,E3f,Cf,E7f,D7f,
