&title=DreamRiser
&artist=ChouCho
&first=0.02
&des=洛茜
&lv_5=12+
&inote_5=(165)
{1},
{16},,8,1,7-3[8:1]/2,,,,
{8}2,2h[8:3],,,4,3/4,,{1}2qq6[8:5]/5,
{8},7,7h[8:3],,,5,5/6,,{1}7pp3[8:5]/4,
{16},,2h[4:1],,,,4,,,3,4,,2,,1/8,,,,6h[4:1],,,,5,,4/7-4[8:1],,,,3,,2,,,,
{8}1,6,6,8,6,6,7,6,6,5,6,6,3b<6[8:1],,6,,
{8}7/8h[4:1],,6,1/6h[4:1],,3,4/3h[4:1],,5,2/5h[4:1],,2,1-4[8:1]/2-4[8:1],,1/2,,
{8}5/6h[4:1],,4,7/4h[4:1],,1,1/2,1<6[4:1]/2,,4,3,2h[8:3],,,3,,
{8}1/8,,1/7,,1-7[8:1]/6,,6h[4:1],,5-3[8:1],,8h[4:1],,1,,2/7,,
{8}4/5,,3/5,,2/5-3[8:1],,2h[4:1],,1-7[8:1],,4h[4:1],,5,,3/6,,
{8}7-3[8:1],,3,,4>1[8:1],,5,,6pp3[2:1],,4,,3,,2,,
{8}8-4[8:1],,1,,2<7[8:1],,6,,4-8[8:1]/5-1[8:1],,4/5,,2/7,2/7,,,
{8}5/6,6,5,7,4,6,3/4,3,4,2,5,3,3/4,4/5,5/6,,
{8}7/8,7,5,6,4,3/5,2/1,2,4,3,5,4/6,1/8,2/7,3/6,,
{8}3/6h[8:3],,5,5,,4/7-3[8:1],,3-5[8:1],,2,2,2-6[8:1],,8,8,
{8},3>8[4:1]/7,,8<5[4:1],,5>2[4:1],,2<5[2:1],,8p4[4:1],,,,
{8},,1/8,,
{8}3>6[8:3]/6,,,5,5,,1/8,,
{8}6<3[8:3]/3,,,4,4,,8/1,,
{8}3>6[8:3]/6,,,5,5,,1/8,,
{8}6<1[16:3]/3,,5,5,,
{8}4,3,2,1/5-2[8:1],,3,,1-6[8:1]/5,,7,,
{8}8,1,2,3b-8[8:1]/7b-4[8:1],,,,,
{8}1/6,8,7,2/6h[4:1],,5,6,4V25[4:1]/7V16[4:1],,,,,
{8}3>8[8:1]/7<4[8:1],,,,1b/6b,5,4,3b/7b,8,1,2b/6b,3b/4b,5h,,6h,,7h,
{16}1,8,1,8,1,8,
{8}2-6[8:1]/7,,8,8>3[8:1],,8b/4V25[4:1],,5V38[4:1]/4,,7,7h[4:1],,6-4[8:1]*-8[8:1],6,,,
{8}7-3[8:1]/3,,1,1<6[8:1],,1b/5V74[4:1],,4V61[4:1]/5,,2,2h[4:1],,3-5[8:1]*-1[8:1],3,,,
{8}2/6,3qq7[2:1],4,5h[8:5],,,,,6,6pp2[2:1],5,4h[8:5],,,,,
{8}3-6[8:1],,3/1,1-5[8:1],,1/6<4[8:3],,3h[8:3],,,,,1/5,1/5,,,
{8}2-6[8:1]/6,,8,8-4[8:1],,5pp2[8:3]/8,,5b/6b,,8,8<5[8:1],,8/2-4[8:1]*-6[8:1],2,,,
{8}3b>8[8:1]/7,,8,7b<4[8:1],,3bpp8[8:3],,7h[4:1],,,7,6b-8[8:1]/1b-5[8:1],,1/6,,,
{8}2/6,3qq5[2:1],4,7h[8:5],,,,,6,6pp4[2:1],5,2h[8:5],,,,,
{8}3>8[8:1],,3/4,4-8[8:1],,4/5-1[8:1],,5/7h[8:3],,,8,,2-5[8:1]/6-1[8:1],2/6,,,
{4}8b-4[8:1]/4,8b-3[8:1],8b-5[8:1],8b>3[8:1],8b<5[8:1],8bw4[8:1],8b,,
{8}2/6,3,4,1/5,6,7,4/8,1,2,3/7,4,5,6<1[8:1]/2>5[8:1],,2b/6b,,
{16}3/7,,6,5,6,,1h[4:1]/7h[4:1],,,,,,
{1}8V26[2:3]/2>6[2:3],,,
E
