&title=Ultimate Force
&artist=削除
&first=0.03
&des=Definitive Light
&lv_5=14+
&lv_7=15
&inote_5=(270)
{8}
,,,,,,,,,,,,,,,,,
(135),
(270)
{8}2h[8:28]/7qq4<3[8:26],,,,,,,,,,,,,,,,,,,,,,,,,,,,,,,,
{2}5b-1[1:1]/6b,4,3,2,4b-8[1:1]/3b,5,6,7,
2bpp6[8:10]/8b,5,6,
{8}7,7xbh[4:1],,4xb-6-2-8[8:11],4xbh[8:8],,,,,,,,,,,,4,,3,,2-6-4-8[8:10]/5h[8:12],,,,,,,,,,,,,,,,
4h[8:12]/6-3-5-1[8:10],,,,,,,,,,,,,,,,7-5[4:1]/3h[2:1],,,,,,,,2h[2:1]/4-6[4:1],,,,,,,,1h[2:1]/8-4-8[1:1],,,,,,,,Cf,,,,,,,,
{4}1b-5[8:26],5,4,6,3,7,2,8,1hx[1:2],,,,,,,,Ch[1:3],,,,,,,,,,,,,E3,E7,E1,
2b-6[8:1],7-4[8:1],1-5[8:1],6-2[8:1],
{8}4x,4x-8[8:1],,
{4}7-4[8:1],1-5[8:1],
{8}6x,6xb-2[8:1],,3-6[8:1],,8-4[8:1],,2,,1,5,3,5,2,6,4,6,
3b-7[8:1],,8-3[8:1],,4-8[8:1],,6-2[8:1],,1x,1x-5[8:1],,7-3[8:1],,4-8[8:1],,6,6,,
{4}3/E8,5/E3,4/C,
{8}2,2,4,4,6,6,8,8,
{4}1b/7-3[8:1],2-5[8:1],8-4[8:1],3-7[8:1],
{8}5x,5x-1[8:1],,
{4}2-5[8:1],8-4[8:1],
{8}3x,3xb-7[8:1],,6-3[8:1],,1-5[8:1],,7,,8,4,6,4,7,3,5,3,
6b-2[8:1],,1-6[8:1],,5-1[8:1],,3-7[8:1],,8x,8x-4[8:1],,2-6[8:1],,7h[4:1],,2,
{16}8b,7,6,5,1h[4:1],,,,7b,6,5,4,8h[4:1],,,,6b,5,4,3,2-6[12:1],1,8,7,6b/2b`Cf,,,,,,,,
{4}7/1bx-4[8:1],7,7/2x-5[8:1],7,7/1x-5[8:1],7,7/2x-6[8:1],7,3-8[8:1],43,6-1[8:1],56,
{8}2,4,3,5,1,6,4,7,4h[4:1],,
{16}1x,8,7,6,
{8}3h[4:1],,
{16}8x,7,6,5,
{8}2h[4:1],,
{16}7x,6,5,4,
{8}1h[4:1],,
{16}6x,5,4,3,
{8}8-4[8:1],,78,,1-5[8:1],,12,,3,4,2,1,4,5,1,8,
{16}5h[4:1],,,,6x,7,8,1,4h[4:1],,,,5x,6,7,8,3h[4:1],,,,4x,5,6,7,2h[4:1],,,,3x,4,5,6,
{8}1-5[8:1],,1/7-3[8:1],,2-6-2[4:1]/7,,8,8h[8:3],,,1x,,46,46,37,37,
{4}8/2^5[4:1],5bx-1[4:1],1bx-7[8:1],6bx,4w8[8:1],4,
{8}2bx,5bx,3,6,
{4}4-8[8:1],6-2[8:1]/4,1-5[8:1]/6,18,
{8}2,6,3,7,
{16}4,8,4,8,4,8,4,8,
(135){32}4bz8[8:3],,,,,,,,,,,,,,,,,,,,
{16},,6,,2,,
{32}8b-4b[8:1],71,62,53,,,,,8,,,,,,,,1b-6[8:1]/7h[8:1],,,,2h[8:1],,,,1,,,,3-7b[8:1],,,,5b-1[8:1],,,,3,,,,5,,,,4>8[8:1],,,,7b,,,,6,,,,5-1[8:1],,,,,,,,7h[4:1]/5b,,,,,,,,8-4b[8:1],,,,,,,,2/8b,,,,1-5[8:1],,,,6-8b[8:1],,,,1-3[8:1],,,,6b-2b[8:1],,,,1,,,,6,,,,4V28[8:1],,,,8b,,,,7,,,,6,,,,5,,,,8/4b-8[8:1],,,,,,,,34,,,,,,,,1b-5[8:1],,,,7-3b[8:1],,,,1>6[4:1],,,,7,,,,1b,,,,6,,,,7,,,,8,,,,1b-5[8:1],,,,4-8b[8:1],,,,1,,,,4,,,,6b^1[8:1]*^3[8:1],,,,,,,,6,,,,,,,,2b^5[8:1]/7,,,,3,,,,8-4b[8:1],,,,7,,,,2b-6[8:1],,,,1-5b[8:1],,,,2<4[4:1],,,,1,,,,2b,,,,,,,,Cf,,,,,,,,
{4}7b^4-2-8-6-4b[8:8]/2b^7-5-3-1-7^4^1^6[8:12],,,,,,,,
{12}3h[24:1]/5h[24:1],3h[24:1]/5h[24:1],3h[24:1]/5h[24:1],2h[24:1]/6h[24:1],2h[24:1]/6h[24:1],2h[24:1]/6h[24:1],
{24}4,3,2,8,7,6,3,2,1,7,6,5,
{12}1h[24:1],1h[24:1],1h[24:1],2h[24:1]/8h[24:1],2h[24:1]/8h[24:1],2h[24:1]/8h[24:1],
{24}6,7,8,1,2,3,54,6,7,8,1,2,
{4}3b^8-6-4-2-8b[8:8]/6b^3-1-7-5-3^8^5^2[8:12],,,,,,,,
{12}6h[24:1]/4h[24:1],6h[24:1]/4h[24:1],6h[24:1]/4h[24:1],7h[24:1]/3h[24:1],7h[24:1]/3h[24:1],7h[24:1]/3h[24:1],
{24}5,6,7,1,2,3,6,7,8,2,3,4,
{12}8h[24:1],8h[24:1],8h[24:1],7h[24:1]/1h[24:1],7h[24:1]/1h[24:1],7h[24:1]/1h[24:1],
{24}3,2,1,8,7,6,45,3,2,1,8,7,
{2}6/4xz8[8:34],
{8},,8,,3,3,6h[8:2],,,,1,,7,,3,,5,,
{12}6,4,5,3h[2:1],
,,,,,,,,
{8}4-8b[16:1],,4x-2-8-6-4>4[8:28],,,,,,C,,3,2,1h[4:1],,,,8h[8:1],,B1,B2,B3,B4,B5,B6,B7,B8,
{4}1hx[8:1],2h[8:1],3h[8:1],C,
{8}1b/2bv5[8:1],3,28,
{16}7,7,8-4[8:1],,6,1,28,,2,,
{8}8b/7bv4[8:1],6,71,
{16}2,2,1-5[8:1],,3,8,71,,7,,
{8}4b/3b^8[8:1],2,35,
{16}6,6,5-1[8:1],,7,4,35,,2,,
{8}5b/6b^1[8:1],7,64,
{16}3,3,4-8[8:1],,2,5,64,,7,,
{8}2b>6>2[8:5],7h[16:1],7h[16:1],7h[16:1],8h[16:1],8h[16:1],1h[16:1],1h[16:1],
8b<3<8[8:5],2h[16:1],2h[16:1],2h[16:1],1h[16:1],1h[16:1],2h[16:1],2h[16:1],
{32}3,4,3,4,3^8[16:1],4,3,4,3,4,3,4,3b,,,,
{32}6,5,6,5,6^1[16:1],5,6,5,6,5,6,5,6b,,,,
4,5,4,5,4,5,4,5,3,6,3,6,3,6,3,6,2b,3,4,5,6,7,8,1,2/7b,6,5,4,
3,2,1-5b[1.72##0.05],8,7h[8:7]/3bh[8:6],,,,,,,,,,,,,,,,,,,,,,,,,,,,1b,,,,
(270)
{24}
8b^5[8:1],,,,,,8x/4x<8[8:1],3,2,,,,1xV75[8:1],2,3,,,,4x,3,2,,,,
{8}
3b,4,2,5,3,7,2,8,
{24}
1b^4[8:1],,,,,,1x/5x>1[8:1],6,7,,,,8xV24[8:1],7,6,,,,5x,6,7,,,,
{8}
6b,4,5,4,7,3,4,3,
{24}8b^5[8:1],,,,,,8x/4x<8[8:1],3,2,,,,1xV75[8:1],2,3,,,,4x,3,2,,,,
{8}
3b,3,5,5,7,7,1,1,
{24}2^5[8:1],,,,,,2xb/1,8,7,6,,,2^5[8:1],,,,,,2xb/1,8,7,6,,,
{24}1b,2,3,4,,,1b,8,7,6,,,
{32}1b,2,3,4,5,6,7,8,1,2,3,4,5,6,7,8,
{8}1^4[8:1]/5b,,
{24}1x/5xV31[8:1],6,7,,,,8x>4[8:1],7,6,,,,5x,6,7,,,,
{8}8,3,5,4,7,2,4,3,
{8}8bx^5[8:1],,
{24}8/4xV68[8:1],3,2,,,,1x<5[8:1],2,3,,,,4x,3,2,,,,
{8}4,7,1,8,3,6,8,7,
{8}1bx^4[8:1],,
{24}1/5bxV31[8:1],6,7,,,,8bx>4[8:1],7,6,,,,5bx,6,7,,,,
{8}6,6,8,8,2,2,4,4,
{24}6h[4:1],,,,,,1b,2,3,4,,,7h[4:1],,,,,,2b,3,4,5,,,
{8}8b,3b,6b,1b,4b-8[8:1],,,,
{8}1,1,7,7,3,3,5,5,8-3[8:1],8,4-7[8:1],4,2-6[8:1],2,8,8,1-5[8:1],,5^2[4:1],,2^7[4:1],,7^4[4:1],,4,,8b,8,1b/7b,17,2b/6b,26,3b-7[8:1]/5b,,5-1[8:1],5,2-6[8:1],2,8-4[8:1],8,3^1[8:1],3,7^5[8:1],7,4-8[8:1],4,6-2[8:1],6,1V35[4:1],,5V71[4:1],,1-5[4:1],,5-1-7[4:1]*-1-3[4:1],,1,,,,
46,,37,,
{16}2b,8,2,8,2,8,2,8,3,7,3,7,3,7,3,7,4b,3,2,1,84,7,6,5,48,37,26,15,48,7,6,5,8,4,8,4,8,4,8,4,7,3,7,3,7,3,7,3,6b,5,4,3,1b,2,3,4,7b,6,5,4,2b,3,4,5,8,4,8,4,8,4,7,3,7,3,7,3,6,2,6,2,5b,4,3,2,1,8,7,6,5/2b,1,8,7,6,5,4,3,2b/6b,,2bv8[8:1]/6bv4[8:1],,,,2b/6b,,,,3b/7b,,3b-8[8:1]/7b-4[8:1],,,,3b/7b,,,,1,2,3,4,5,6,7,8,15,26,37,48,1h[1:1]/5,,,,,,,,,,,,,,,,
{32},,,,,,,,1b/8b,2bz6>1b[32:63]/7bs3<8b[32:63],3b/6b,4b/5b
,,,,,,,,,,,,,,,,,,,,,,,,,,,,,,,,,,,,,,,,,,,,,,,,,,,,,,,,,,,,,,,,,,,,,,,,,,,,,,,,,,,,,1b/Cf,
&inote_7=(270)
{8}
,,,,,,,,,,,,,,,,,
(135),
(270)
3,6,4,6,5,6,4,4,5,5,3,3,5,4,6,3,6,3,5,3,4,3,5,5,4,4,6,6,C,,,,
{32}
1b/8b,27,36,4-1[8:3]/5h[32:45],,,,,,,,,,,,,,,,,,,,,,,,,,,,,,8,,,,,,,,,,,,,,,46,,,,,,,,,,,,,,,,
8b/1b,72,63,5-8[8:3]/4h[32:45],,,,,,,,,,,,,,,,,,,,,,,,,,,,,,1,,,,,,,,,,,,,,,35,,,,,,,,,,,,,,,,
1b,28,37,4-1[8:5]/6,5h[32:48],,,,,,,,,,,,,,,,,,,,,,,,,,,,,,,,,,,,,,,,,,,,
{8},1b,,3b/7b,1b^4[2:1]/5b^8[2:1],,,,,,,,1bh[2:1]/5bh[2:1],,,,3b/7b,,3b/7b,,
5b-7[1:1]*-8[1:1]*-1[1:1]*-2[1:1]*-3[1:1],,,,,,,,,,,,,,,,4b^1[1:1]*-1[1:1]*^7[1:1]*-7[1:1],,,,,,,,,,,,,,,,3b-7[2:1]*-8[2:1]*-6[2:1],,,,,,,,2b^5[2:1]*^7[2:1],,,,,,,,1bw5[2:1],,,,,,,,28,,,,,,,,
{4}2h[4:1],8h[4:1],3h[4:1],7h[4:1],4h[4:1],6h[4:1],5h[4:1],4<8-4>8[1:2],6h[1:2],,,,,,,,Ch[1:3]/B2h[1:3]/B3h[1:3]/B7h[1:3]/B6h[1:3],,,,,,,,,,,,,,,,
2b-5[8:1]/7b,8-4[8:1]/2,8/1-5[8:1],7-4[8:1]/1,
{8}7b/1-5[8:1],1,6-2[8:1],6,4-8[8:1],4,5-1[8:1],5,5b/2b^5[8:1],,
{4}2/8-4[8:1],8/3-7[8:1],3/1^6[8:1],
{8}1/2-6[8:1],2,8-4[8:1],8,1-3[8:1],1,7-5[8:1],7,1b-6[8:1]/7b,,1-4[8:1]/8,,1/3-7[8:1],,3/5-1[8:1],,5b/2b^4[8:1],2,6^8[8:1],6,5-1[8:1],5,8-6[8:1],8,8b/1-5[8:1],,1/2-4[8:1],,2/3^6[8:1],,3/7-3[8:1],,17,1,28,28,37,73,46,64,5b-1[8:1],,5/3-7[8:1],,3/7^2[8:1]*^4[8:1],,7-5-8-4-7-5-8-4-7-5-8[1:1],,1,1,2,2,3,3,4,4,1b^4[8:1]/A8f,,1/6-3[8:1],,8-4[8:1]/6,,48,,35,35,26,26,17,17,8,8,
{32}1bv4[8:1]/7bv4[8:1],26,35,4,,,,,
{8}1-7-3-5[4:1]/7,,8-4[8:1],,8,,2-4-1-5-2-4-1-5-2[8:6],8,8,7,7,6,6,5,5b-1[8:1],,5^2[8:1]*^8[8:1],,5w1[8:1],,5,,46,46,37,37,28,28,1,1,
{16}1,,3,,1,2,3,4,,7,
