&title=Libertas
&artist=Zekk
&first=0.03
&des=KOM3
&lv_5=14
&inote_5=(160)
{1},
{16}6h[4:12]/4>8[4:2],,,,,,,,,,,,,,,,
7q5[4:2],,,,,,,,,,,,,,,,
4<2[4:2],,,,,,,,,,,,,,,,
1b,,6,5,,3,4V62[4:1],,3,,1b,,,,,,
3-1[12:1],,,4,3,,5,,3>8[16:3],,,8v2[8:1],,,7,,
6>3[8:1],,,5,6,,2,,{24}1-5[8:1],2,3,4,5,6,{16}7,,,,
8-4[8:1],,,1,8,,3,,2,4,3,6,5,7,2,8,
1b,,,,2b,,,,3b-8[8:1],,,,3b/4b,,,,
7h[4:2],,,6,,,5,,4>2[8:1],,4,,5,,,,
3h[4:2],,,4,,,5,,6<8[8:1],,6,,5,,,,
3h[4:2],,,1,,,7,,5>3[8:1],,5,,2,,,,
1h[4:2],,,8,,,6,,5<7[8:1],,5,,8,,,,
1>4[8:1],,8,,7,,6,,5<8[8:1],,4,,3,,2,,
1,,42,,8,,75,,43,,82,,65,,71,,
3,6,5,6,2,5,4,5,{32}1,2,3,4,5,6,7,8,1,2,3,4,5,6,7,8,
1,2,3,4,5,6,7,8,1,2,3,4,5,6,7,8,{16}1bv8[8:1]*v2[8:1]/5b,,,,,,,,
4b/5b,,1,,3,4,3,,6,5,6,,3,4,3,4,
1,,7,8,7,,3,24,,,7,8,16,,38,,
45,,6,5,7,5,6,,3,4,2,4,3,,47,,
2h[8:1],,5,1h[8:1],,4,8h[8:1],,{12}5h[12:2],,7,6,8,5,
{16}
1b,,3,,7,8,7,,2,1,2,,7,8,7,8,
5,,3,4,3,,6,57,,,4,5,36,,18,,
3<2[4:2]/5h[8:5],,,,,,,,,,,,6,,,,
7>6[4:2]/8h[8:4],,,,,,,,,,1,,2,,3b/5,,
18,,,,4,6,3,5,2>4[16:1],,1,8,2,,6,5,
7<4[8:1],,8,1,7,,2,,3,,17,,6,,28,,
1,8,3,8,5,8,3,8,1h[8:1],,7,8,6,8,5,8,
6>3[8:1],,8,1,6,,2,,48,,2,34,,7,56,,
1,8,3,8,1,,3,4,1h[256:1]/5h[256:1],,3h[256:1],,5h[256:1],,7h[256:1],,
8,1,6,1,8,,6,5,8h[256:1]/4h[256:1],,{48}6h[256:1],5h[256:1],,,,,3h[256:1],4h[256:1],,,,,7h[256:1],6h[256:1],,,,,
{12}8,4,6,4,8,2,7,3,5,3,5,1,
{24}7,8,7,8,7,8,7,8,7,8,7,8,{16}7-4[8:1],,8,,7pp3[4:7]/2-5[8:1],,,,
2b/7b,,,,,,,,,,,,,,,,
,,,,,,,,,,,,,,,,
2h[4:4],,,,4,,,,4,,,,4,,,,
5h[4:2],,,,4,,,,4h[4:1],,,,1,,1,,
8-4[4:2],,,,1,,,,2,,,,3,,,,
4-7[4:2],,,,3,,,,2,,,,1,,,,
7<3[4:2],,,,8,,,,1,,,,2,,,,
5h[8:1]/6h[8:1],,,,4,5,4,,2-5[8:1]/7-4[8:1],,18,,2b/7b,,,,
1bV35[4:2]/8b,,,,8,,8,,8,,8,,8,,,,
6V84[4:2]/3,,,,1,,1,,1,,1,,1,,,,
4V28[4:2]/5,,,,5,,5,,5,,5,,5,,,,
5V71[4:2]/4,,,,4,,4,,4,,4,,4,,,,
5h[8:1]/6h[8:1],,,,1,6,5,6,2,5,4,5,3,6,5,6,
2,7,6,7,3,8,1,8,2,7,4,5,2,7,4,5,
{24}2,3,4,5,6,7,8,1,2,3,4,5,{32}1,8,7,6,5,4,3,2,1,8,7,6,5,4,3,2,
1,8,7,6,5,4,3,2,1s5[4:1]*z5[4:1],8,7,6,5,4,3,2,1b,,,,,,,,,,,,,,,,
{24}1-6[8:1]/6,2,3,{16}4,,1>4[8:1]/2,,3,,17,,6,5,,2,1,,
{24}8-3[8:1]/3,7,6,{16}5,,8<5[8:1]/7,,6,,82,,3,4,,7,8,,
{24}1-6[8:1]/6,2,3,{16}4,,1V35[8:1]/2,,3,,15,6,7,8,2,1,2,,
{24}8-3[8:1]/3,7,6,{16}5,,78,,6,,{24}8,7,6,2,3,4,7,6,5,1,2,3,
{24}8q4[8:1]/4,7,6,{16}5,,6/8-5[8:1],,7,,28,,3,4,,7,8,,
{24}1p5[8:1]/6,2,3,{16}4,,3/1-4[8:1],,2,,71,,6,5,,2,1,,
6,4,6,4,8,4,8,4,2,4,2,4,{24}1,8,7,2,3,4,
{16}5<8[8:1],,6,4,5,,2,,2,8,1w5[8:1],7,2,,1b,,
,,,,1>3[12:1]/8,,,5,1-5[8:1],,6,,7/1>3[12:1],,8,7,
6/1-5[8:1],,6,,1>3[12:1]/7,,,6,1<5[4:1],,5,,5>1[4:1],,,,
8,,,,8<6[12:1],,,3,8-4[8:1],,2,,2/8<6[12:1],,1,,
3/8-4[8:1],,4V62[4:1],,3,,2V84[4:1],,3b,,,3b,,,2b,,
1qq2[4:2],,,,,,,,,,,,,,,,
5qq6[4:2]/4,,,,,,,,,,,,1,,3,,
56,,56,,47,,47,,1,8,2,7,3,6,4,5,
4w8[8:3],,,,,,,,,,,,2b/6b,,,,
45,,2,,8,,6,,3,4,1,6,4,5,2,7,
5h[8:1],,1,4,8,3,7,2,6,1,5,8,6,1,7,2,
8h[8:1],,6,1,5,8,4,7,3,6,2,5,1,4,8,3,
8,4,8,5,8,6,8,7,8bq4[8:1],,,7b,,,6b,,
5,4,6,5,8,1,7,8,5h[8:1],,2,6,2,6,2,6,
3,4,1,8,4,5,8,7,3,1,2,4,3,5,4,6,
5h[8:1],,8,6,8,6,8,,4h[8:1],,1,3,1,3,1,,
{12}8h[48:1],4h[48:1],6h[48:1],4h[48:1],6h[48:1],2h[48:1],8-4[8:1],3h[48:1],3h[48:1],8b,,,
{16}
18,,3,,5,,7,,2,1,4,7,1,8,3,6,
8h[8:1],,4,2,5,3,6,4,7,5,8,6,7,5,6,4,
5h[8:1],,2,4,3,4,2h[8:1],,6,4,5,4,6h[8:1],,4,7,
3,8,4,5,1,6,4,5,1b-4[16:1],,,5b-8[16:1],,,2b,,
3b,,,,8,,4,5,4bp8[16:1],,,7bp3[16:1],,,2b,,
1bq5[16:1],,,6bq2[16:1],,,3b,,4,,5,,6,5,{24}7pp2[8:5],6,5,
{16}4,,,,,,,,3h[4:1],,,,,,,,
2bpp1[8:3]/6bpp5[8:3],,,,,,,,,,,,4b/8b,,,,
3>8[8:1],,,4,3,,5,,3V14[16:3],,,4p8[8:1],4,,5,,
6<1[8:1],,,4,6,,3,,{24}2q6[8:1],3,4,5,6,7,{16}8,,,,
8<5[8:1],,,1,8,,3,4,2,6,5,7,2,1,4,5,
1b-7[8:1],,,,2b-6[8:1],,,,3b-5[8:1],,,,4bw8[8:1],,,,
4b,,,,,,,,,,,,,,,,E
