&title=耐冬花麗
&artist=曲:テラ(少女理論観測所) 歌:藍原椿(CV:橋本ちなみ)
&first=0
&des=霊風
&lv_5=13+
&inote_5=(184)
{1},
{1},
{8}5/6h[8:3],,,5,6h[8:3],,,5,
{8}6h[8:3],,,4,6h[8:3],,5,4,
{8}3h[8:3]/5,,,4,3h[8:3],,,4,
{8}3h[8:3],,,4,3h[8:3],,2,1,
{8}8h[8:3]/2,,,6,8h[8:3],,,4,
{8}8h[8:3],,,2,8,,3/7,4/6,
{2}5h[8:3],1h[8:3]/5h[8:3],
{4}1-4[8:1]/5,1/6-3[8:1],6/2-7[8:1],2/5,
{16}4<7[8:1]/8>3[8:1],,,,4/8,,,,8-6[8:1],2,,2,8,,4h[4:1],,
{16},,5,4,5,,6,,7/3,,8,,7/3,,6,,
{16}5-8[8:1]/3-8[8:1],,,,3/5,,,,1-4[8:1],8,,8,1,,7h[4:1],,
{16},,2,7,2,,3,,4/6,,3,,2/6,,1,,
{16}8-4[8:1]/6-1[8:1],,,,6/8,,,,3-7[8:1],8,,8,3,,6h[4:1],,
{16},,8,6,8,,1,,2/7,,3,,4/6,,5,,
{16}4<7[8:1]/6>3[8:1],,,,4/6,,,,8-4[8:1],1,,1,8,,2h[4:1],,
{16},,3,4,5,6,7,8,1b/5b,,4b/8b,,3b/7b,,2b/6b,,
{1}1s5[4:5]/5h[2:1],
{8}6,,,,,,4/5,6,
{8}7/3,,1/2>4[8:1],8,1/2,,7,7,
{8}6<1[8:1],5,4-7[8:1],3,2h[4:1],,8,8,
{8}1/7,,5/6<8[8:1],4,5/6,,3,3,
{8}2/8,6,1/7,3,1/8h[4:1],,2,2,
{16}1h[4:1]/6,,,,6,,7,8,7z3[8:1]*-4[8:1],,,,7,,,,
{8}5/6,7,5/6,8,3/4,2,3/4,1,
{8}6/8,,2/7,,1/8h[8:3],2,4,3,
{8}2/7,6,3/5<8[8:1],8V24[4:1]*>4[4:1],,,,,
{8}5/6,,7/1,,8/1h[8:3],7,5,6,
{8}7/3,1,4v1[8:1]/6v1[8:1],1>5[4:1]*<5[4:1],,,,,
{8}4/6,,2/4h[4:1],,3,3h[4:1],7,7h[4:1],
{8}1,1h[4:1],5-8[8:1],5,2-4[8:1],2,1-6[8:1],1,
{16}3h[4:1],,,,5,,3,4,2/5,,3,,4/7,,5,,
{16}1/6,,7,,3/8,,1,,2,8,2,8,2,8,2,,
{8}3>1[8:1]/7V15[2:3],3/7,,,,,2,,
{4},2,,2,
{8}3V51[2:3]/7<5[8:1],3/7,,,,,6,,
{4},6,,6,
{8}7h[8:1]/8h[8:1],,1/6,6,3/8,3,4/5,5,
{8}4-2[8:1]/5,4,5-7[8:1],5,3-1[8:1],3,6-8[8:1],6,
{8}2-6[8:1],2,3,4,5-1[8:1],5,6,7,
{8}8,2,7,3,6,4,5,5,
{16}3,4,3,4,1,8,1,8,5,6,5,6,2-6[8:1],7,2,7,
{1}2bqq5[2:1],
{16}3/7-3[8:1],,4,,4,3,2,1,8,7,6,5,4,3,2,1,
{16}7,8,6,1,5h[8:1],,3,,3/4,,5,,7/6,,8,,
{16}1/2,3,4,5,6,7,8,1,2/6,5,4,3,2,1,8,7,
{8}2/6>3[8:1],3pp4[4:1]*qq2[4:1],,,,,5,5,
{16}1>4[8:1]/6,,,7,1-5[8:1],,8,,1,,,,3,,2,,
{16}1/7<4[8:1],,,8,7-3[8:1],,1,,1h[4:1],,,,4-8[8:1],,4,,
{16}1<6[8:1]/4,,,2,1,,2,,3h[8:1],,,,4h[8:1],,,,
{16}5/6,,,1/8,,,3h[4:1]/4,,,,2,1,8,7,6,5,
{16}3,4,3,4,2,4,2,4,1,4,1,4,8,4,8,4,
{16}7,8,1,2,3h[8:1],,4,,3/5,,4,,3/5,,4,,
{16}5<8[8:1]/6,,,,4/5,,3,,2,1,2,1,3,8,3,8,
{8}4>1[8:1],7<4[8:1],4-8[8:1],7,,,3,3,
{8}3>6[8:3]*>6[8:3],,,6q3[8:3]*q3[8:3],,,3,,
{8}5<1[8:3],,,1q6[8:3],,,3,,
{16}4,,4,,5,,5,,4,5,4,5,4,5,4,,
{8}4b/5b,3b/6b,2b<6[8:3]/7b>3[8:3],,,,,,
{1}4h[2:3]/5h[2:3],
{2},{16},,,,,,2,3,
{16}4,,,5,,,6,,6,,,4,,,2,,
{16}2,,,5,,,8,1,8,,,6,,,2,,
{8}3h[2:1],,,,6,5,4,3,
{8}6,5,3,4,3,,{12},6,6,
{12}3,4,3,6,5,6,2,4,2,7,5,7,
{12}3,8,3,6,1,6,2,8,3,7,4,6,
{1}5qq4[2:1],
{1}5qq3[2:1],
{1}5qq2[1:1],
{16},,,,,,7,6,5h[8:1],,,,3h[8:1],,,,
{1}4pp5[2:1],
{1}4pp6[2:1],
{1}4pp7[1:1],
{1}4>8[2:1],
{4}7<2[2:3]/8,8,8,8,
{4}8,8,8,8,
{4}2>7[2:3]/1,1,1,1,
{4}1,1,1,1,
{8}1/8,1,2/7,7,3/6,3,4/5,5,
{8}3/4,3,5/6,6,2/4,2,5/7,7,
{8}2/6,4,3/7,5,2/6,4,3/7,5,
{8}2h[4:1]/6,8,6h[4:1],2,4h[4:1],7,5h[4:1],1,
{4}3h[8:15],4h[8:1],,4h[8:1],
{4},4h[8:1],,4,
{4}6h[8:15],5h[8:1],,5h[8:1],
{4},5h[8:1],,5,
{8}3-1[8:1],7-5[8:1],3,7,3-1[8:1],7-5[8:1],3,7,
{8}2-7[8:1],6-3[8:1],2,6,2-7[8:1],6-3[8:1],2,6,
{8}2>5[8:1],1,8,7>2[8:1],6,5,4<7[8:1],3,
{8}2,2,8,8,4,4,6,6,
{16}3,5,3,5,7,5,7,5,2,4,2,4,6-2[8:1],4,6,4,
{1}6b,
{1}3bV57[2:1]/2b>7[2:1],
{8}5bqq3[2:1]/4bpp6[2:1],5b/4b,,,,,,,
{1}6bV42[2:1]/7b<2[2:1],
{8}7,6,5,4,3h[4:1],,6,7,
{16}8<5[8:1]/3,,,2,8-4[8:1],,1,,8,,,,6,,7,,
{16}8/2>5[8:1],,,1,2-6[8:1],,8,,8h[4:1],,,,5-1[8:1],,5,,
{16}8>3[8:1]/5,,,7,8,,7,,6h[8:1],,,,5h[8:1],,,,
{16}4/3,,,8/1,,,6h[4:1]/5,,,,7,8,1,2,3,4,
{16}6,5,6,5,7,5,7,5,8,5,8,5,1,5,1,5,
{16}2,1,8,7,6h[8:1],,5,,6/4,,5,,6/4,,5,,
{16}4>1[8:1]/3,,,,5/4,,6,,7,8,7,8,6,1,6,1,
{8}5-7[8:1],2>5[8:1],5p1[8:1]*v8[8:1],2,,,7,7,
{8}7>3[8:3],,,3p6[8:3],,,6,,
{8}4>8[8:3],,,8p3[8:3],,,6,,
{16}5,,5,,4,,4,,5,4,5,4,5,4,5,,
{8}5b/4b,3b/1b,8bpp2[8:3]/6bqq4[8:3],,,,,,
{16}5<8[8:1]/1v3[8:1],,,,5/1,,,,2-8[8:1],7,,7,2,,5h[4:1],,
{16},,7,5,7,,8,,1/6,,2,,3/6,,4,,
{16}5-1[8:1]/6-1[8:1],,,,6/5,,,,8-5[8:1],1,,1,8,,2h[4:1],,
{16},,7,2,7,,6,,5/3,,6,,7/3,,8,,
{16}1-5[8:1]/3-8[8:1],,,,3/1,,,,6-2[8:1],1,,1,6,,3h[4:1],,
{16},,1,3,1,,8,,7/2,,6,,5/3,,4,,
{16}5>2[8:1]/3<6[8:1],,,,5/3,,,,1-5[8:1],8,,8,1,,7h[4:1],,
{16},,5,7,5,,4,,3b/8b,,3b/8b,,1b/6b,,1b/6b,,
{16}2-6[8:1]/7-3[8:1],,,,2/7,,,,4>1[8:1],5,,5,4,,6h[4:1],,
{16},,8,6,8,,1,,2-4[8:1],,5-1[8:1],,2,,5,,
{16}3-8[8:1]*-6[8:1],,,,3,,,,7,8,,3,4,,2h[4:1],,
{16},,4,2,4,,2,,5<8[8:1],,1>4[8:1],,5,,1,,
{16}7,,7,,3,,3,,2/5,,3,4,3,,1/6,,
{16}7/8,,6,5,6,,4/7,,8-4[8:1],,1-5[8:1],,8,,1,,
{16}6,,6,,4,,3,,2,1,,6,5,,7,,
{16}1/8,,1,8,1w5[8:1],,2/7,,1,
