&title=最後
&artist=AcuticNotes
&first=0
&des=Jinsokyo2
&lv_5=14+
&lv_7=宴
&inote_5=(100)
{1},{16}2,5,3,4h[8:1],,7,8,1h[8:1],,6,7h[8:1],,8,1,2,3,7,4,6,5h[8:1],,2,1,8h[8:1],,3,
2h[8:1],,1,8,7,6,3,5,4,6h[8:1],,8,1,2h[8:1],,8,7h[8:1],,4,3,2,1,6,4,5,3h[8:1],,2,
1-6[4:3]/4,8/5-2[16:11],{1},{8}7/1-5[16:1],8/2,1/3,{16},4h[8:1],,2-5[16:1],2,3,1,2,
8-4[16:1],8/4,,4,8/4,3>8[16:1],2,5<8[16:1]/1,,4-8[4:1]/3,,5/4,,4/3,2,1,2,3,
7-2[16:1]/4-1[16:1],6,5,,7/4,,,3h[8:1],,4>1[16:1],5,6,7,8/4,7<4[16:1],7/8,,3,7/4,
3-8[8:1],2,1/8-4[8:1],,4-7[8:1]/3,,7-3[8:1],,6h[8:1],,,,7,2/8-4[16:1],,1/7,,8/6,,,
5h[8:1],,7-4[16:1],7,6,8,7,1-5[16:1],1/5,,5,1/5,6<1[16:1],7,4>1[16:1]/8,,5-1[4:1]/6,,
4/5,,5/6,7,8,7,6,2-7[16:1]/5-8[16:1],3,4,,2/5,,,6h[8:1],,5<8[16:1],4,3,2,1/5,
2>5[16:1],2/1,,6,2/5,6-1[8:1],7,8/1-5[8:1],,5-2[8:1]/6,,2-6[8:1],,3h[8:1],,,,2,
1>4[4:1]/5,,,,,,,6,{8},7/5,,,8<5[4:1]/4,,,{16},3,{8},4/2,,,1-5[4:1]/5,,,{16},6,{8},
7/4,,,8-4[4:1]/4,,,{16},3-7[16:1],{4},,1/2-5[4:1],{16},,,6,{8},7/4,,,7-4[4:1]/8,,,
{16},3,{8},5/2,,,6/1-4[4:1],,,{16},5,{8},7/3,,,8-5[4:1]/3,,,{16},2-6[16:1],{8},,,,
7/1-6[16:1],8,1/2,3,5-1[16:1]/4,6,7/5,,2/8-3[16:1],1,8/7,6,4-8[16:1]/5,3,2/4,,
8/1-5[16:1],2,1/3,4,6-2[16:1]/5,7,6/8,,{16}7,7,3,3,6,6,2,2,5,5-8[16:1],1,1-4[16:1],5,
5/2,,6/1,,,7b/3b,,,,8/1,,5-1[16:1]/4h[16:3],,,6-2[16:1],5>2[16:1],,,6,{8}5<8[16:1],7,
5-1[4:1]/1,3,5h[8:3],,,,{16}7/1,8,1-6[16:1],8/2h[16:3],,,1,,3/5,4,5-2[16:1],
4/6h[16:3],,,5,,7-4[16:1],8/1,,2-6[16:1],7,{32},3,{16},2,{2}5b,{16}4h[8:1],,8,7/3,7,
7,6/2,2,2,5/1,5,5,8-5[16:1]/4,8/4-1[16:1],5/1,6-3[16:1]/2-7[16:1],8,4-8[16:1],,
6/2-5[16:1],,4,,2b,{8},,,6h[8:1],8-4[16:1],8,7-3[16:1],7,6-2[16:1],6,5-1[16:1],5,
4-8[16:1],4,3-7[16:1],3,2-6[16:1],2,1-5[16:1],1,1<6[8:1]/4>1[8:1],6-2[2:1],4-8[8:3],,
,,,,{16}1,1,5,5,2,2-7[16:1],6,6-3[16:1],3,2-5[16:1]/6,,6-1[16:1]/2,,2,,6,2,2>5[16:1],
1<6[16:1]/3,,,2-6[16:1],1-5[16:1],,,2>5[16:1],1<6[16:1],,,2,1,,7,7<4[16:1],
8>3[16:1]/6,,,7-3[16:1],8-4[16:1],,,7<4[16:1],8>3[16:1],,,7,{8}8-4[8:1],4<7[8:1],
7>2[8:1],6h[4:1],,,{16},3,7-4[16:1]/2,,8/1-5[16:1],,7/3,,1<6[16:1],8,,2,1/3-7[16:1],,
5/4,,6-1[16:1]/3,5,,2,6/3,,{1}4b/8-4[4:5],,{16}8/1,2,5/3,6,1/7,8-4[16:1],2h[16:1],
6h[8:1],,8,,,{32}5-2[16:1],6,7,8,{16}1/3,4-8[16:1],6h[16:3]/5,,,,,,{32}3,4,2,5,3,4,2,
5,3,4,2,5,{16}1h[16:5],,5h[16:1],,,7-3[16:1],,,6,7/8,2>5[16:1],8/1,,{32}8,8,2,,7,,
8-4[16:1],1,2,3,4,5,6,7,{16}8b,,5/3,5/3,6/4,6/4,7/5,7/5,8-3[16:1]/4-7[16:1],7/3,6/2,
5/1,4/8,,1-5[16:1],5,6/8,,7<4[16:1]/1,,7/3,8,7/2-6[16:1],1,8h[8:1],,2,,{32}4-7[16:1],
3,2,1,{16}8/6,5-1[16:1],3h[16:3]/4,,,,,,{32}6,5,7,4,6,5,7,4,6>3[16:1],5,7,4,
{16}8h[16:5],,,,,2-6[16:1],,,3,2/1,7<4[16:1],1/8,,{32}1,1,7,,2,,1-5[16:1],8,
7-3[16:1],6,5,4,3,2,{8}1<6[16:1],,1/2,{32}3,4,2,,7-3[16:1],8,6,,1-4[16:1],8,
{16}1-6[16:1],7/3,,,,3,,2>5[16:1]/8,,2/6,1,2/7-3[16:1],8,1h[8:1],,7,,{32}5-2[16:1],6,
7,8,{16}1/3,4-8[16:1],6h[16:3]/5,,,,,,{32}3,4,2,5,3,4,2,5,3<6[16:1],4,2,5,
{16}1h[16:5],,,,,7-3[16:1],,,6,7/8,2>5[16:1],8/1,,{32}8,8,2,,7,,8,1,2,3,4,5,6,7,
{16}8/4,4,7/3,7,6/2,2,5/1,5-1[8:1],6/2,7/3,8/4,5/1,,,,,{32}3,4,3,2,3,,5,4,5,4,5,,2,1,
2,,6,5,6,7,6,,4,5,4,5,4,,7,8,7,,2,1,2,1,2,,6,5,6,7,6,,2,3,2,,7,8,7,8,7,,3,4,3,2,3,,7,
6,7,,3,4,2,4,1,,7,8,7,6,7,,2,1,2,,6,5,7,5,8,,2,1,2,3,2,,7,8,7,,2,1,2,3,2,,6,5,6,7,6,,
3,4,3,,5/2,,6,5,7,,6/4,,5-1[16:1]/3,,{48}2,1,8,7,6,5,4,3,2,{32}5b/1b,,,,,,7,8,7,8,7,,
1,8,1,,6,5,6,7,6,,2,1,2,1,2,,8,1,8,,3,4,3,2,3,,5,4,5,6,5,,1,2,3,4,6,5,6,7,6,,4,5,4,3,
4,,5,6,7,8,2,1,2,3,2,,6,8,6,8,6,,1,2,3,4,6,5,6,7,6,,2,4,2,4,2,,5,6,7,8,{16}1/5,5,5,
8/4,8,8-4[16:1],7/3,2-6[16:1],1,2>5[16:1]/8<5[16:1],,1/2,,8/2,,,{1}1b,{4}5<8[4:1],
1>4[4:1],,{8}7-2[4:1],6,5h[8:3],,,{16}4,3,2,,8/1h[4:1],,,,5,,8-5[16:1],,3,2,
1-4[16:1],,6,7,8h[8:1],,2,2,6,4,,5/3,,,2b/6b,,,,1/8,,4-8[16:1]/5h[16:3],,,3-7[16:1],
4<7[16:1],,,3,{8}4>1[16:1],2,4-8[4:1]/8,6,4h[8:3],,,,{16}2/8,1,8-3[16:1],1/7h[16:3],,
,8,,6/4,5,4-7[16:1],5/3h[16:3],,,4,,2-5[16:1],1/8,,7-3[16:1],2,{32},6,{16},7,{2}4b,
{16}5h[8:1],,1,2/6,2,2,3/7,7,7,4/8,4,4,1-4[16:1]/5,1/5-8[16:1],4/8,
3-6[16:1]/7-2[16:1],1,5-1[16:1],,3/7-4[16:1],,5,,7b,{8},,,1h[2:1],,,,5-1[2:1],5b,,,,,
,,4-8[2:1],4,,,,,,7h[8:1],6h[8:1],5h[8:7],,,1h[2:1],,,,,2,{16}6,5,7,,3,4,1,,4/2,5/3,,
6/4,,7/3,2,2>5[16:1],8<5[16:1]/3,,,1-5[16:1]/2,8-4[16:1],,,6/1>4[16:1],8<5[16:1],,,1,
8,,7,7<4[16:1],1>4[16:1]/6,,,8-4[16:1]/7,1-5[16:1],,,3/8<5[16:1],1>4[16:1],,,8,
{8}1-5[8:1],5<8[8:1],8>3[8:1],7h[4:1],,,{16},6,2-5[16:1]/7,,1/8-4[16:1],,2/6,,
8>3[16:1],1,,7,8/6-2[16:1],,4/5,,3-8[16:1]/6,4,,7,3/6,,7/2,,6,5/3-7[16:1],,
4/2-6[16:1],,1-5[16:1]/3,,8-4[16:1]/2,,7-3[16:1]/1,,6/8,,7b/5h[16:15],{8},,,,,,,1,
{1}8<5[2:1]/4>1[2:1],{4}1-5[1:1],{16}8,,{32},8h[16:1],,,,,,,{8}8h[16:1],,8h[16:3],,
8h[4:1],,,7/1-5[16:1],8/2,1/3,{16},4h[8:1],,2-5[16:1],2,3,1,2,8-4[16:1],8/4,,4,8/4,
3>8[16:1],2,5<8[16:1]/1,,4-8[4:1]/3,,5/4,,4/3,2,1,2,3,7-2[16:1]/4-1[16:1],6,5,,7/4,,,
3h[8:1],,4>1[16:1],5,6,7,8/4,7<4[16:1],7/8,,3,7/4,3-8[8:1],2,1/8-4[8:1],,4-7[8:1]/3,,
7-3[8:1],,6h[8:1],,,,7,2/8-4[16:1],,1/7,,8/6,,,5h[8:1],,7-4[16:1],7,6,8,7,1-5[16:1],
1/5,,5,1/5,6<1[16:1],7,4>1[16:1]/8,,5-1[4:1]/6,,4/5,,5/6,7,8,7,6,2-7[16:1]/5-8[16:1],
3,4,,2/5,,,6h[8:1],,5<8[16:1],4,3,2,1/5,2>5[16:1],2/1,,6,2/5,6,7,8-5[8:1]/1-4[8:1],,
5<8[8:1]/4>1[8:1],,8-4[16:1]/1-5[16:1],,,,,,6/3,2,1,8,7,,6/5,,4/3,,1/2,,7/8,,5/1,,,
{32},3,4,5,6-3[8:5],
E
&inote_7=(200)
{1},,{8}2,5,3,4h[4:1],,7,8,1h[4:1],,6,7h[4:1],,8,1,2,3,7,4,6,5h[4:1],,2,1,8h[4:1],,3,
2h[4:1],,1,8,7,6,3,5,4,6h[4:1],,8,1,2h[4:1],,8,7h[4:1],,4,3,2,1,6,4,5,3h[4:1],,2,
1-6[2:3]/4,8/5-2[8:11],{1},,{4}7/1-5[8:1],8/2,1/3,{8},4h[4:1],,2-5[8:1],2,3,1,2,
8-4[8:1],8/4,,4,8/4,3>8[8:1],2,5<8[8:1]/1,,4-8[2:1]/3,,5/4,,4/3,2,1,2,3,
7-2[8:1]/4-1[8:1],6,5,,7/4,,,3h[4:1],,4>1[8:1],5,6,7,8/4,7<4[8:1],7/8,,3,7/4,
3-8[4:1],2,1/8-4[4:1],,4-7[4:1]/3,,7-3[4:1],,6h[4:1],,,,7,2/8-4[8:1],,1/7,,8/6,,,
5h[4:1],,7-4[8:1],7,6,8,7,1-5[8:1],1/5,,5,1/5,6<1[8:1],7,4>1[8:1]/8,,5-1[2:1]/6,,
4/5,,5/6,7,8,7,6,2-7[8:1]/5-8[8:1],3,4,,2/5,,,6h[4:1],,5<8[8:1],4,3,2,1/5,
2>5[8:1],2/1,,6,2/5,6-1[4:1],7,8/1-5[4:1],,5-2[4:1]/6,,2-6[4:1],,3h[4:1],,,,2,
1>4[2:1]/5,,,,,,,6,{4},7/5,,,8<5[2:1]/4,,,{8},3,{4},4/2,,,1-5[2:1]/5,,,{8},6,{4},
7/4,,,8-4[2:1]/4,,,{8},3-7[8:1],{2},,1/2-5[2:1],{8},,,6,{4},7/4,,,7-4[2:1]/8,,,
{8},3,{4},5/2,,,6/1-4[2:1],,,{8},5,{4},7/3,,,8-5[2:1]/3,,,{8},2-6[8:1],{4},,,,
7/1-6[8:1],8,1/2,3,5-1[8:1]/4,6,7/5,,2/8-3[8:1],1,8/7,6,4-8[8:1]/5,3,2/4,,
8/1-5[8:1],2,1/3,4,6-2[8:1]/5,7,6/8,,{8}7,7,3,3,6,6,2,2,5,5-8[8:1],1,1-4[8:1],5,
5/2,,6/1,,,7b/3b,,,,8/1,,5-1[8:1]/4h[8:3],,,6-2[8:1],5>2[8:1],,,6,{4}5<8[8:1],7,
5-1[1:1]/1,3,5h[4:3],,,,{8}7/1,8,1-6[8:1],8/2h[8:3],,,1,,3/5,4,5-2[8:1],
4/6h[8:3],,,5,,7-4[8:1],8/1,,2-6[8:1],7,{16},3,{8},2,{1}5b,{8}4h[4:1],,8,7/3,7,
7,6/2,2,2,5/1,5,5,8-5[8:1]/4,8/4-1[8:1],5/1,6-3[8:1]/2-7[8:1],8,4-8[8:1],,
6/2-5[8:1],,4,,2b,{4},,,6h[4:1],8-4[8:1],8,7-3[8:1],7,6-2[8:1],6,5-1[8:1],5,
4-8[8:1],4,3-7[8:1],3,2-6[8:1],2,1-5[8:1],1,1<6[4:1]/4>1[4:1],6-2[1:1],4-8[4:3],,
,,,,{8}1,1,5,5,2,2-7[8:1],6,6-3[8:1],3,2-5[8:1]/6,,6-1[8:1]/2,,2,,6,2,2>5[8:1],
1<6[8:1]/3,,,2-6[8:1],1-5[8:1],,,2>5[8:1],1<6[8:1],,,2,1,,7,7<4[8:1],
8>3[8:1]/6,,,7-3[8:1],8-4[8:1],,,7<4[8:1],8>3[8:1],,,7,{4}8-4[4:1],4<7[4:1],
7>2[4:1],6h[2:1],,,{8},3,7-4[8:1]/2,,8/1-5[8:1],,7/3,,1<6[8:1],8,,2,1/3-7[8:1],,
5/4,,6-1[8:1]/3,5,,2,6/3,,{1}4b/8-4[2:5],,,,{8}8/1,2,5/3,6,1/7,8-4[8:1],2h[8:1],
6h[4:1],,8,,,{16}5-2[8:1],6,7,8,{8}1/3,4-8[8:1],6h[8:3]/5,,,,,,{16}3,4,2,5,3,4,2,
5,3,4,2,5,{8}1h[8:5],,5h[8:1],,,7-3[8:1],,,6,7/8,2>5[8:1],8/1,,{16}8,8,2,,7,,
8-4[8:1],1,2,3,4,5,6,7,{8}8b,,5/3,5/3,6/4,6/4,7/5,7/5,8-3[8:1]/4-7[8:1],7/3,6/2,
5/1,4/8,,1-5[8:1],5,6/8,,7<4[8:1]/1,,7/3,8,7/2-6[8:1],1,8h[4:1],,2,,{16}4-7[8:1],
3,2,1,{8}8/6,5-1[8:1],3h[8:3]/4,,,,,,{16}6,5,7,4,6,5,7,4,6>3[8:1],5,7,4,
{8}8h[8:5],,,,,2-6[8:1],,,3,2/1,7<4[8:1],1/8,,{16}1,1,7,,2,,1-5[8:1],8,
7-3[8:1],6,5,4,3,2,{4}1<6[8:1],,1/2,{16}3,4,2,,7-3[8:1],8,6,,1-4[8:1],8,
{8}1-6[8:1],7/3,,,,3,,2>5[8:1]/8,,2/6,1,2/7-3[8:1],8,1h[4:1],,7,,{16}5-2[8:1],6,
7,8,{8}1/3,4-8[8:1],6h[8:3]/5,,,,,,{16}3,4,2,5,3,4,2,5,3<6[8:1],4,2,5,
{8}1h[8:5],,,,,7-3[8:1],,,6,7/8,2>5[8:1],8/1,,{16}8,8,2,,7,,8,1,2,3,4,5,6,7,
{8}8/4,4,7/3,7,6/2,2,5/1,5-1[4:1],6/2,7/3,8/4,5/1,,,,,{16}3,4,3,2,3,,5,4,5,4,5,,2,1,
2,,6,5,6,7,6,,4,5,4,5,4,,7,8,7,,2,1,2,1,2,,6,5,6,7,6,,2,3,2,,7,8,7,8,7,,3,4,3,2,3,,7,
6,7,,3,4,2,4,1,,7,8,7,6,7,,2,1,2,,6,5,7,5,8,,2,1,2,3,2,,7,8,7,,2,1,2,3,2,,6,5,6,7,6,,
3,4,3,,5/2,,6,5,7,,6/4,,5-1[8:1]/3,,{24}2,1,8,7,6,5,4,3,2,{16}5b/1b,,,,,,7,8,7,8,7,,
1,8,1,,6,5,6,7,6,,2,1,2,1,2,,8,1,8,,3,4,3,2,3,,5,4,5,6,5,,1,2,3,4,6,5,6,7,6,,4,5,4,3,
4,,5,6,7,8,2,1,2,3,2,,6,8,6,8,6,,1,2,3,4,6,5,6,7,6,,2,4,2,4,2,,5,6,7,8,{8}1/5,5,5,
8/4,8,8-4[8:1],7/3,2-6[8:1],1,2>5[8:1]/8<5[8:1],,1/2,,8/2,,,{1}1b,,{2}5<8[2:1],
1>4[2:1],,{4}7-2[2:1],6,5h[4:3],,,{8}4,3,2,,8/1h[2:1],,,,5,,8-5[8:1],,3,2,
1-4[8:1],,6,7,8h[4:1],,2,2,6,4,,5/3,,,2b/6b,,,,1/8,,4-8[8:1]/5h[8:3],,,3-7[8:1],
4<7[8:1],,,3,{4}4>1[8:1],2,4-8[1:1]/8,6,4h[4:3],,,,{8}2/8,1,8-3[8:1],1/7h[8:3],,
,8,,6/4,5,4-7[8:1],5/3h[8:3],,,4,,2-5[8:1],1/8,,7-3[8:1],2,{16},6,{8},7,{1}4b,
{8}5h[4:1],,1,2/6,2,2,3/7,7,7,4/8,4,4,1-4[8:1]/5,1/5-8[8:1],4/8,
3-6[8:1]/7-2[8:1],1,5-1[8:1],,3/7-4[8:1],,5,,7b,{4},,,1h[1:1],,,,5-1[1:1],5b,,,,,
,,4-8[1:1],4,,,,,,7h[4:1],6h[4:1],5h[4:7],,,1h[1:1],,,,,2,{8}6,5,7,,3,4,1,,4/2,5/3,,
6/4,,7/3,2,2>5[8:1],8<5[8:1]/3,,,1-5[8:1]/2,8-4[8:1],,,6/1>4[8:1],8<5[8:1],,,1,
8,,7,7<4[8:1],1>4[8:1]/6,,,8-4[8:1]/7,1-5[8:1],,,3/8<5[8:1],1>4[8:1],,,8,
{4}1-5[4:1],5<8[4:1],8>3[4:1],7h[2:1],,,{8},6,2-5[8:1]/7,,1/8-4[8:1],,2/6,,
8>3[8:1],1,,7,8/6-2[8:1],,4/5,,3-8[8:1]/6,4,,7,3/6,,7/2,,6,5/3-7[8:1],,
4/2-6[8:1],,1-5[8:1]/3,,8-4[8:1]/2,,7-3[8:1]/1,,6/8,,7b/5h[8:15],{4},,,,,,,1,
{1}8<5[1:1]/4>1[1:1],,{2}1-5[1:2],{8}8,,{16},8h[8:1],,,,,,,{4}8h[8:1],,8h[8:3],,
8h[2:1],,,7/1-5[8:1],8/2,1/3,{8},4h[4:1],,2-5[8:1],2,3,1,2,8-4[8:1],8/4,,4,8/4,
3>8[8:1],2,5<8[8:1]/1,,4-8[2:1]/3,,5/4,,4/3,2,1,2,3,7-2[8:1]/4-1[8:1],6,5,,7/4,,,
3h[4:1],,4>1[8:1],5,6,7,8/4,7<4[8:1],7/8,,3,7/4,3-8[4:1],2,1/8-4[4:1],,4-7[4:1]/3,,
7-3[4:1],,6h[4:1],,,,7,2/8-4[8:1],,1/7,,8/6,,,5h[4:1],,7-4[8:1],7,6,8,7,1-5[8:1],
1/5,,5,1/5,6<1[8:1],7,4>1[8:1]/8,,5-1[2:1]/6,,4/5,,5/6,7,8,7,6,2-7[8:1]/5-8[8:1],
3,4,,2/5,,,6h[4:1],,5<8[8:1],4,3,2,1/5,2>5[8:1],2/1,,6,2/5,6,7,8-5[4:1]/1-4[4:1],,
5<8[4:1]/4>1[4:1],,8-4[8:1]/1-5[8:1],,,,,,6/3,2,1,8,7,,6/5,,4/3,,1/2,,7/8,,5/1,,,
{16},3,4,5,6-3[4:5],
E
