&title=HAMELN
&artist=葉月ゆら
&first=0.02
&des=Hakusei
&des_5=Hakusei
&lv_5=13
&inote_5=(130){4},{8},,,,,,4/3,
2,{16}5,3h[16:3],,,4,,,6,{4}5,
{8}6/5,7,{16}4,6h[16:3],,,5,,,3,{4}4-8<7-3[2:1],
{8}4/5b,6,{16},6,,,7,,,7,,,{8}1/8,
2-6>5-1[2:1],1h[8:1],{16},8h[8:1],,,{4}7h[8:1],6<2[4:1],
2<6[4:1],3,4-8[8:1],{8}4/5,6,
7,{16}1,8,{8}2>5[8:1],5p1[8:1],2,{16},,,,7,8,
{4}6>3[24:5],3q8[4:1],2,{8}1-5[8:1],2,
7-3[8:1],6,{4}2-6[8:1],2/8,3b>7[4:1],
7>3[4:1],6,5-1[8:1],{8}4/5,3,
2,{16}8,1,{8}7-4[8:1],4-8[8:1],7,{16},,,,2,1,
{8}2,{16}3,4,{8}3,2/1,{4}2/1-5-3-8[2:1],1/8,
{8}7,7,6,6,5h[4:1],{32}A4,D4,A3,D3,{4}A2f,
1>5[4:1],{8}5>1<5[2:1],6,{4}7,7h[8:1],
{8}8,8,1<5[4:1],2,3h[4:1],{16},,,,4,5,
{8}4,{16}7,8,{8}7-1[8:1],1-5[16:3],{4}7,{8}2,2,
3-7[8:1],3,6-2[8:1],6,{4}4h[4:1],{16}6,4,7,5,
{4}8<4[4:1],{8}4<8>4b[2:1],3,{4}2,2h[8:1],
{8}1,1,8-2-5[4:1],7,6h[4:1],{16},,,,7,5,
{8}7h[4:1],{16},,,,2,8-6>4[4:1],{2}2h[4:1],
{8}1b,{16},,,,3,5,{4}3-8-4[4:1],3,
{8}6x,6,6/4,6,2x/6,2,2/8,2,
{4}2/7bxh[4:1],{8}1,{16}8,1,{8}7,7,{16}2,2,8,1,
{8}7<4[8:1],4q8[8:1],7,1,2b,2b/1b,{16}3,8,4,7,
5,6,4,4,{8}5>8[24:5],4/6,5b/7h[4:1],{16},,,,6,8,
{8}6,{16}7,5,{8}7-4[8:1],4-7[8:1],7,{16}3,3h[16:3],,,{8}8,
1/2>5[8:1],5/6<1[8:1],2,6,{4}2b>5b[8:1]*-6b[8:1],2b/Cf,
{8}3-8[8:1],8-4[8:1],3,7,6b,6b/5b,{16}4,7,3,8,
2,1,3,3,{8}8-4-8b[4:1],6/2,8b/4bh[4:1],,,3,
{16}3,5,4,6,{8}3,7,3-8[8:1],2,7-4[8:1],6,
{12}1,2,3,4/5,6,7,{4}1bx>4b[8:1]`8bx<5[8:1],{64}1bx/8bx,D2,D8,D3,D7,D4,{32}D6f,{1},,{16},,{2}3h[2:1],
4h[2:1],
5h[2:1],6h[2:1],
{4}3,3/4,{16}6,,,5,{8}6,4,
{4}6,6/5,{16}3,,,4,{8}3,5,
3,4,4/3,2,8/1,{16}7,8,{8}7,6,
5/4,3,4/5,6,4/5,{16}3,4,{4}2b,
8-4[4:1],{8}4-8-6-2[2:1],3,{4}2,{8}1,1,
8,8h[4:1],3<8[4:1],4,5h[4:1],{16},,,,2,1,
{8}2,{16}3,4,{8}3-5[8:1],5-2[8:1],{4}3,{8}6,6,
7,7,8<3[4:1],1,{2}2h[4:1],
{4}1-5[4:1],{8}5-1-3-7b[2:1],6,{4}7,{8}8,8,
1,1h[4:1],6>1[4:1],5,4h[4:1],{16},,,,3,1,
{8}3xh[4:1],{16},,,,2,4<8[16:3],{2}2xh[4:1],
{8}1b,{16}7,8,{8}6,6,5/4,{16}3,4,{8}2,2,
{16}8,1,8,1,7,2,7,2,6,3,6,3,5,4,5,4,
{4}5h[4:3],{16},,,,,,,,B4,B6,B2,B8,
{2}Cf,C/E1/D1,
E2,C/E3/D3,
E4,C/E5/D5,
E6,C/E7/D7,
{8}2>4[8:1],2,{4}1,{8}7<5[8:1],7,{4}8,
{8}3>1[8:1],3,{4}4,{8}6<8[8:1],6,{4}5,
{8}2-6[8:1],2,7-4[8:1],7,1-5[8:1],1,1/8-4[8:1],8,
{12}8/1,2,2,3/4,5,5,{8}6/4h[4:1],{32}A6,D7,A7,D8,{4}A8f,
{8}8/3,{16}2,1,{8}2>5[8:1],5p1[8:1],2b,6b,{16}7,7,1,8,
2,4,3,3,{8}5>8[4:1],4/6,5b/7h[4:1],{16},,,,7,8,
{8}7,{16}6,5,{8}6-1[8:1],1-6[8:1],6,{16}3,3h[16:3],,,7,7,
{8}1-5[8:1],4/6-8[8:1],1,6,{4}1b>4b[32:3],{32}1/8b,7,6,5,,,,,{8}6/1,
{16}7,8,{8}7-4[8:1],6/4-8[8:1],7,3,{16}2,3,4,5,
7,8,6,6,{8}1b-5-1b[4:1],3b/7b,1b/5bh[4:1],,,6,
{16}6,4,5,3,{8}7,3/8,1/2-5[8:1],3,2/8-4[8:1],7,
{12}8/1,2,2,3/4,5,5,{8}6x<1b[8:1]`4x>1[8:1],3/7,{4}6b/4b,
{8}3/8,{16}2,1,{8}2q4[4:1],8,7,6h[4:1],{16},,,,5,
4,{8}6,3/5p3[4:1],4/6,5/7h[4:1],{16},,,,8,1,
7,2,{8}6h[4:1],C,{16}2,1,3,8,{8}4h[4:1],C,{16}7,8,
6,1,{8}5<8[8:1],4/3,{16}2,3,{8}4-8[8:1],7b,{4}7b,
{8}6/1,{16}7,8,{8}7p5[4:1],1,2,3h[4:1],{16},,,,4,
5,{8}3,6/4q6[4:1],5/3,4/2h[4:1],{16},,,,1,8,
2,7,{8}3h[4:1],C,{16}7,8,6,1,{8}5h[4:1],C,{16}2,1,
3,8,{8}4,5/6,{16}3,4,{8}1-4b[8:1]*-6[8:1],2/8,{4}1b/Cf,
{2}7h[4:1]/3h[4:1],{16}2,1,5,6,1,8,3-8b[8:1]*-6b[8:1],4,
,,{8}A3f,
E
