&title=Starlight Dance Floor
&artist=発熱巫女~ず
&first=0
&des=Alice Megatron
&lv_6=13+
&inote_6=(128)
{1}
,5b<3[8:4]/3bq4[8:4],
{16}
3,,3,,5,3,,,3-5[8:1]/5,,,,,,,,
6,,6,,4,6,,,6-4[8:1]/4,,,,,,,,
2/4,,2,,4,3,,,2-5[8:1]/5,,,,,,,,
6-1[8:1],,,,5,,,,6-1[8:1],,,,4,,,,
{16}
3h[8:1],,4,,3h[8:1],5,,,4-1[8:1],,,,6,,,,
6h[8:1],,5,,6h[8:1],4,,,5-8[8:1],,,,3,,,,
3h[8:1],,4,,3h[8:1],5,,,4-1[8:1],,,,6,,,,
{8}
2b/7b,,,,
{24}4,5,4,
{16}5,4,5,,3/6,,
{8}
7h[8:1],,7h[8:1]/5,,7h[8:1],,7-4[8:1]/5-3[8:1],,
,,3,,2^5[16:3],,6q8[8:3],,,,,,5^2[16:3],,8p6[8:3],,
,,,,1-4[8:1]*-6[8:1],,1,,
3h[8:1],,3h[8:1]/5,,3h[8:1],,3h[8:1]/5-1[8:1],,3s7[4:1],,,,
,8^5[8:1]/5,,1,,1^4[8:1]/4,,8,,7pp4[8:3]/5-2[8:1],,,,,,,
{24}4,5,4,
{16}5,4,5,,3/6,,
{8}
3h[8:1],4,3h[8:1]/5,6,6h[8:1],5,6h[8:1]/4,3,
3h[8:1],4,3h[8:1]/5,6,6h[8:1],5,6h[8:1]/4,3,
2-5[8:1],,8V61[4:1],,3,4,5-2[8:1],,8-5[8:1],,2V41[4:1],,,8,7,6-8[8:1],,
6/5,4,3-1[8:1],,3/4,5,6,
{16}7/8,,,4/5,,,1/2,,
{8},3-6[8:1]/8-5[8:1],,3/8,,6-3[8:1]/1-4[8:1],,6/1,,5-1[8:1],,5pp4[8:3],
{8}
,,,4,3,2,1,
{32}
8>3[8:1],7,6,,
{8}
,6,7,
{32}
8>3[8:1],7,6,,
{8}
,6,7,
{32}
8V62[8:2],7,6,,
{8},,,4,5,6,7,
{32}
8^3[8:1],7,6,,
{8},6,7,
{32}
8^3[8:1],7,6,,
{8},5-8[8:1],6,3p2[4:1],,,,
1,8,7,6,
{32}5>2[8:1],6,7,,
{8},7,6,
{32}5>2[8:1],6,7,,
{8},7,6,
{32}5qq8[4:1],6,7,,
{8}
,,,6,7^4[8:1],7,3-7[8:1],3,8v3[8:1],8,
1q5[8:1],,7p3[8:1],8,2,1qq4[8:3],,,,
5,6,7^4[8:1],8,
{32}3q7[8:1],2,1,8,
{8},8^5[8:1],2,
{32}4q8[8:1],3,2,1,
{8},1<5[8:1],3,
{32}5qq8[4:1],4,3,2,
{8}1,,,
4,3,2^5[8:1],1,
{32}6p2[8:1],7,8,1,
{8},1^4[8:1],7,
{32}5p1[8:1],6,7,8,
{8},8>4[8:1],6,
{32}4pp1[4:1],5,6,7,
{8}8,,,5,6/4,3^6[8:1]/7,2/8,
{32}7-3[8:1],8,1,2,
{8},7^4[8:1],,
{32}3-7[8:1],2,1,8,
{8},3<7[8:1],,
{32}7p5[4:1],8,1,2,
{8},,,2,3/4,5,6/8,1,2-5[8:1]/8-5[8:1],3/7,2/8,,4/6,7,1/8,2,
{16}3b/5b,,,5b/7b,,,1b/7b,,,,
{8}1/8,2,
{32}3/1,8,7,,
{8}2,1,2,
{32}3/1,8,7,,
{8}2,1/5,3-7[8:1]/7-3[8:1],,7V14[4:1]/3V58[4:1],,,
,,{8}8/1,7,
{32}6/8,1,2,,
{8}7,8,7,
{32}6/8,1,2,,
{8}7,8/4,1^6[8:1]/5^2[8:1],,5V72[4:1]/1V36[4:1],,,,,
1,8,
{32}7/1,2,3,4,
{8}8,1,8,
{32}7/1,2,3,4,
{8}8,1-5[8:1]/5-1[8:1],,1V37[4:1]/5V73[4:1],,,,,,
8,1,
{32}2/8,7,6,5,
{8}1,8,1,
{32}2/8,7,6,5,
{8}1,8q4[8:1]/4q8[8:1],
,8/4,,7/3,6/2,5<8[8:1]/1>4[8:1],,5qq2[4:3]/1qq6[4:3],,5b/1b,,,,
{8},
{8},,8,7/2,3,4/6,7,6/5-1[8:1],,5^2[8:1],,
{32}1-5[8:1],8,7,6,
{8},1^6[8:1],,
{32}5,4,3,2,
{8},,4,2/5,,5,4/7,6-2[8:1],,
6^3[8:1],,
{32}2/6-2[8:1],1,8,7,
{8},6^1[8:1],,
{32}2/6,3,4,5,
{8},,4/5,7/2,6,5,4,3-7[8:1],,
3^6[8:1],,
{32}7/3-7[8:1],8,1,2,
{8},3^8[8:1],,
{32}7,6,5,4,
{8},,1/5,,8/7,6/5,3/4,1^6[8:1]/2^5[8:1],,1/2,,6qq1[8:7],6h[8:8],
