&title=Xterfusion
&artist=REDLiCE × t+pazolite
&first=0.52
&des=T-T_F
&lv_5=14.7
&inote_5=(256){4}7b/Ch[2:1],,8h[4:1],1,
{8},,,{16}2,3,{4}8/4h[4:1],8-5[8:1],
{8},4,{4},{2}6/3,
3/5-7-1-3[1:1],4-6-8-2-4[32:15],
,Cf,
,,,3h[2:3]/4h[2:1],
,B4/B3,
,6h[2:3]/5h[2:1],
,B5/B6,
,5h[2:1]/4h[2:1],
,B5/B4/C,
E5,4h[2:1]/2h[2:3],
,B4/B3,
,5h[2:1]/7h[2:3],
,B5/B6,
,4>5[8:27],
5,B4,
B5,B1,
B8,B4,
B5,5/4h[2:1],
{8}5-7[8:1],{4},{8}3-1[8:1],{4},6h[2:1],
4-6[8:1],4-2[8:1],{2}4/8xh[2:1],
{8}2-4[8:1],{4},{8}8-6[8:1],{4},2h[2:1],
8-6[8:1],8-3[8:1],{2}8/4xh[2:1],
{8}5-7[8:1],{4},{8}3-1[8:1],{4},7h[2:1],
1-3[8:1],1,{8}8,8,4,4,
7,7,3,3,{4}6b-2[8:1],4b-8[8:1],
1bw5b[8:1],1bx,1x/7x-4[8:1],7/2-5[8:1],
2/8-4[8:1],8/1-5[8:1],1/7-4[8:1],7/3-5[8:1],
3/6-1[8:1],6/2,{8}3-8[8:1],8-2[8:1],{4}3,
7-4[8:1],7/3-8[8:1],{16}3,{8},{16}6x,{8}6x-1[8:1],1-5[8:1],
{4}6,{8}2-5>4[8:1],4x-8[8:1],{4}2,6-1[8:1],
6/2-5[8:1],2/8x,{8}3-6[8:1],6-4[8:1],{4}3,
{16}7,8,{8}1,{16}3,4,{8}5,{2}Ch[2:1],
{8},,,{16}2,3,{4}4/8,3-6[8:1]/7-2[8:1],
{2}7/3,{4}7/2-5[8:1],2/8-4[8:1],
8/1-5[8:1],1/7-4[8:1],7/3-1[8:1],3/7-3[8:1],
7/4-1[8:1],4/6,{8}6-1[8:1],1-5[8:1],{4}6,
2-4[8:1],2/6-1[8:1],{16}6,{8},{16}5x,{8}5x-1[8:1],1x-3[8:1],
{4}5,{8}8,7,{16}6,5,{8}6,{16}3,4,{8}3,
{4}6x/3x,6b/3b,{16}3,4,{8}3,{16}6,5,{8}6,
6/3,7/2,{4}8b/1b,{8}1,1,8,8,
,1,1,8,8b,8,{4}2b,
6,5,{2}4b>5[1:1],
,,,3>6[2:1],
6<3[2:1],3>6[2:1],
6<3[2:1],{4}3-1-6[2:1],4,
6-8-3[2:1],5,3-1-6[2:1],4,
6-8-3[2:1],5,{2}3<6[2:1],
6<1[2:1],1>4[2:1],
5,6bs2z6[4:5],
,,,{4}1/2-4[8:1],
1,
8/1-5[8:1],8,1/8-4[8:1],1,
8/7-5[8:1],8,8/7-5[8:1],8,
1/8-4[8:1],1,8/1-5[8:1],8,
1/2-4[8:1],1,8<4[8:5],D7,
5>1[8:5],D4,2<6[8:5],D1,
7<3[8:5],D6,4>1[2:1],D3,
{1}1s5[2:1],
{4}5x,4,{2}3h[1:1],
{8}6-8[8:1],6,{4},,,3,
4,5,6,
{8}5v8[8:1]/4v1[8:1],5/4,{1},{8}3,
4,{4}3,6h[2:1],
,{8}4,5,{4}4,6h[2:1],
,4,3,2,
{8}1s5[8:1]/8z4[8:1],8/1,{4},,,4,
5,{2}6h[1:1],
{8}5-3[8:1],5,{4},,,1,
2,3,{8}4,4,
,5/4,,4-1[8:1]/5-8[8:1],{4},,,7/2,
6h[4:3],{8}2-5[8:1],2,
{2},{4}4h[4:3],{8}6-1[8:1],6,
{2},{8}4,8,4,7,
{4}4h[2:1],5,5b,{8}5,4,
5,4,5,4,{4}5b,{8}4,5,
4,5,4,5,{4}4,{8}4,{16}6,5,
{8}6,{16}3,4,{4}3,(130)1/2,1/2,
{8}1/2,4/3,{4}2/1,7h/8h,7h/8h,
{8}7h/8h,6h/5h,{4}7h/8h,{8}1/2,1/2,{16},2/4,{8},4/3,
1/2,{4}3/4,{8}8h/7h,8h/7h,{16},7h/5h,{8},6h/5h,
7h/8h,{4}6h/5h,(135){16}1/2,{8},{16}4/3,{8},3/4,
{12}1/2,1/2,4/3,4/3,{6},{16}8h/7h,{8},{16}6h/5h,{8},5h/6h,
{12}8h/7h,8h/7h,5h/6h,6h/5h,{6},(140){16}2,2,,4,{8}4,{16}1,1,
{8}4,3/4,{4}2/1,(145){16}7h[16:1],{8},{16}5h[16:1],{8},{16}8h,8h,
{8}5h,6h/5h,{4}7h/8h,(150){8}1/2,2/4,{4}3/4,
{8}8h/7h,5h/7h,{4}5h/6h,{16}3,3/4,{8}4,{4}1/4,
{16}6h[16:1],5h[16:1],{8},{4}8h/5h,(160){16}3,3/4,{8}4,{16}2,2/1,{8}1,
{16}6h[16:1],5h[16:1],{8},{16}7h[16:1],8h[16:1],{8},{12}4/3,4,3,4,{6}3,
5h[12:1]/6h,{12}6h,5h,{6}6h,(170){48}3,{24},{48}4,{24},{16}2,1,3,4,{8},{16}6h,
5h,7h,8h,6h,5h,{8},{16}1,4/1,{8}4,2,2,
{16}8h,5h/8h,{8}5h,7h,7h,(180)4/3,4/3,5/6,5/6,
4/3,4/2,5/6,5/7,(190)1/4,2/4,8/5,7/5,
4/2,4/3,5/7,6/5,(200)2/4,3,7/5,6,
1/4,2,8/5,7,(210)3/1,2,6/8,7,
4/1,3,5/8,6,(220)5/1,3,4/8,6,
1/5,2,4/8,7,(230)1/5,3,8/4,6,
4/3,2,6/5,7,(240)4/3,1,6/5,8,
4/2,1,7/5,8,1/4,1,8/5,8,
4/3,4/3,5/6,5/6,(250){16}3,4,{8}3,{16}6,5,{8}6,
{16}3,5,{8}4,{16}6,4,{8}5,{16}2,5,{8}4,{16}7,4,{8}5,
{16}2,4,{8}3,{16}7,5,{8}6,(256){2}4b>5[4:3],
{1},{4}6/3,
6/3,2/7-1[8:1],3/7,
{8}4-1[8:1],1V35[8:1],4,8,,7h[8:3],{4}6,
4,6/3,7/2-8[8:1],2/5,
{8}5-8[8:1],8V64[8:1],5,1,{4}2h[4:3],3,
5,{8}6,6/3,{4}6-1[8:1]/3-8[8:1],6b/3b,
6x/3x,{8}7/2,7/2,{4}2b-5[8:1]/7b-4[8:1],7b/2b,
7x/2x,6x/3x,7/3,6/2,
{8}6/2,3-1-6[4:1]/7-5-2[4:1],,7b/3b,{2},{4}5/4-2[8:1],
6/4,1/7-4[8:1],7/2,
{8}2-5[8:1],5V38[8:1],2,6,{4}7h[4:3],1,
2,3,6/2,{8}1b/5b,7b/3b,
,6b-1[8:1]/2b-5[8:1],,2b-8-5[4:1]/6b-4-1[4:1],{4},,,6b/2b,
7/3,{8}1/5,6/2,
{4}3-8[8:1]/7-4[8:1],7b/3b,5x/1x,{8}3/7,5/1,
{4}6-1[8:1]/2-5[8:1],6b/2b,{8}8x/4x,7/4x,6/3,5/3,
2>5[8:1],1,8,7>2[8:1],6,5,{4}4,
{16}3,4,3,4,2,5,2,5,{2}2b-8-6[2:1],
6-1-3[2:1],3-8-6[2:1],
6-1-3[2:1],{4}3-8<6[2:1],4,
6-1>3[2:1],5,3-8<6[2:1],4,
6-1>3[2:1],5,{2}3<5<6[2:1],
6<8>1[2:1],1>3<4[2:1],
4<6<7[2:1],8bz4[4:3],
{1},{4}5,
4,{2}3h[8:7],
{8}6-1[8:1],6,,A1f,{2},{4}5,
6h[4:7],4,3,
{8}3-8[8:1],3,,A8f,{1},{32}1b/8bq1[8:3]*<1[8:3],
E1,B8/B1/C/B5/B4,E5,{8},,,,,,,{32}8bx/1bxp8[8:3]*>8[8:3],
E1,B8/B1/C/B5/B4,E5,{8},,,,,,,{2}3b/8h[4:1],
7b/4h[4:1],2b/5h[4:1],
6b/1h[4:1],C,
7b/1b,{4}8/7-5[8:1],7/8-4[8:1],
8/7-3[8:1],7/3,{8}2-5[8:1],5-3-8[8:1],2,6,
{4}7-5[8:1]*-2[8:1],7bx,4x/3-1[8:1],3/4-8[8:1],
4/3-7[8:1],7/3,{8}6-1[8:1],1-7-5[8:1],6,2,
{4}3-1[8:1],{8}3bx,4,{4}4-6[8:1],4,
2x/7x,{8}1,1,{4}1-3[8:1],5b,
6x/4x,6b/2b,1/5,8/4,
{8}6/2,3-1-6[4:1]/7-5-2[4:1],,7b/3b,{2},7b/2b,
{4}1b/7b-4[8:1],7/8-3[8:1],
8/7-2[8:1],7/4,{8}4-1[8:1],1-3-5[8:1],4,8,
{4}8h[4:1],{32}4bx-8[8:1],3/7,2/6,1/5,{8},{4}4bx/2bx-5[8:1],2/7-4[8:1],
7/3-7[8:1],5/3,{8}5-8[8:1],8-6-4[8:1],5,1,
{4}1h[4:1],{32}5bx-1b[8:1],6/2,7/3,8/4,{8},{4}5x/7x-5[8:1],{8}7/2-8[8:1],2,
{4},4bv5[8:1],3,{8}3,2-8[8:1],
{4},5-7[8:1],{8}2-4[8:1],1x,8x/2,7x,
{16}6,5,6,5,{4}6b-8[8:1],{8}2/6,3-5[8:1],,3/8,
{4}7-1[8:1],7/4-8[8:1],4/7-5[8:1],{8}1/7,2-5[8:1],
,2/6h[8:1],{4},{16}5,6,5,6,4,7,4,7,
3,8,3,8,2,1,2,1,3,8,3,8,2,1,2,1,
{32}2b,3,4,5,6,7,8,1,2/6b,5,4,3,2,1/2x,8/3x,7/4x,{2}5bxh[2:1]/6bh[2:1],
{32},4x/7x/D5f/D7f,3x/8x/D8f/D4f,D1f/D3f/1bx-5-1[32:117]/2bx-6-2[32:117],{1},,,,{4},{8},{2}E1f/E7f/E5f/Cf/E3f/E8f/E2f/E6f/E4f,
E
