&title=ミルククラウン・オン・ソーネチカ
&artist=ユジー; 初音ミク
&first=0
&des=[null]
&lv_5=13+
&inote_5=(254.9)
{1},
{8}2,,2,4,,4,,4,,4,,4,3h[2:1],,,,
7,,7,5,,5,,5,,5,,5,6,,7/8,,1,,1,4,,4,,4,,4,,4,2>4[8:1],,,,
8,,8,5,,5,,5,,5,,5,7<5[8:1],,2,,
1,4,2,5,3,6,4>1[8:1],4,7h[2:1],,,,
8,7,1,6,2,5,3,6,4,7,5>2[8:1],5,8h[2:1],,,
,1-5[8:1],,1/8,,
7,4,6,3,5,2,4<7[8:1],4,1h[2:1],,,,
8,1,7,2,
6,6,5,4h[4:1],,3h[8:2],,2h[8:2],,1,,7,7b/8b,,,,
{4}3h[4:1]/4,4,2h[4:1]/4,4,1h[4:1]/4,4,8h[4:1]/4,4,
{8}7>4[8:3],,5,,6,,7,,8/5,,3,4,3,,2/5,,
7,8,7,8,6,,6/5,,2,1,2,1,3,,3/4,,7<5[8:1],,3,,4p8[8:1],,6,,
7,7,8,6,2,2,4,3,
4/5h[4:1],,4,,4/6h[4:1],,4,,4/7,,4/8<5[8:1],,4/8,,4,,
5/3h[4:1],,5,,5/2h[4:1],,5,,5/1,,5/8>3[8:1],8,5,,5,,
6,4,6,4,7,4,7,4,{12}8,1,2,3,4,5,8,1,2,3,4,5,
{8}8,8V61[4:1],,1-5[8:1],,2,,3,3b<2[2:1],,,,,,,,
4/3,,4/2,,5/4,,5/3,,6<3[8:3],5,6,5,,4,4,,
6/5,,6/4,,7<4[8:1],,3<7[8:3],3,,,2h[8:4],,,,7,4,
6/5,,5/7,,4/5,,4/6,,3V17[8:3],4,3,4,,5,5,,
3/4,,3/5,,2>5[8:1],,6V41[8:3],6,,,7h[4:2],,,,
1,8,
2/1,,1/3,,1/8,,2/8,,7<2[8:3],8,7,8,,1,1,,
7/8,,7/1,,6>2[4:1],6,2>8[16:7],,1,,1h[2:1],,,,8,1,7/8,,1/6,,2,5,3,4,2,2,1>5[4:1],,8,,
7,7,4b-8[8:1],,5b-7[8:1],5,1b-3[8:1],,8-4[8:1],8,,2,,2,2-6[8:1],,,,
7,5,7,5,6h[8:3],,8,8>5[8:3],,,5v3[4:1],,,,,,
6,4,6,4,5h[8:3],,7,7>3[8:3],,,3v5[4:1],,,,,,
3,4,3,4,2h[8:3],,8,8<4[8:3],,,4v6[4:1],,,,,,
2,4,3,4,2,5,3,5,4-1[8:1],4,5v4[4:1],,,,,,
3/8,,2,1,3,8<1[2:1],,3h[8:5],,,,,,,,,
1/6,,7,8,1/6,,2,1,3,3,7,7,{16}1,2,3,4,5,6,7,8,
{8}1,1,6h[4:1],,2,2,7h[4:1],,
3-5[8:1],,8h[4:1],,4,8,3,7,
2,2,6h[4:1],,1-3[8:1],,7h[4:1],,
4-8[8:1],,8-4[8:1],,5,6,7,,
1<6[8:1],,1>4[8:1],,1-6[8:1],,1-4[8:1],,1<6[8:1],,1>4[8:1],,1-5[8:1],,1>8[4:2],,1b,,,,,,,,
2,4,3,3,7,5,6,6,
4-2[8:1]/5,,6,,1/8-6[8:1],2,3,,
5-7[8:1]/4,,3,,8/1-3[8:1],,7,,
6<3[8:2],,3>6[8:2],,4,,5V36[4:1],,6-2[8:1],,,7,7,,,,
2,1,2,1<6[8:1],,3,,2,7,8,7,8>3[8:1],,6,,7,2,1,2,8-4[8:1],,1,,2,6,5,7,7,2,4,3,3,
5-7[8:1]/4,,3,,8/1-3[8:1],,6,,
4-2[8:1]/5,,6,,1/8-6[8:1],,2,,
3>6[8:2],,6<3[8:2],,5,,4pp8[2:1],,2,,,,1,,8/1,,
2-4[8:1],,7,7,1-5[8:1],,6,6,8>4[4:1],,4V68[4:1],,8V24[4:1],,4<4[1:1],,
{1}8h[4:15],,,{4},,,
{8}4,4,5b,,6,6,5b,,3,4,2b,,6,5,7b,,2b/8b,,
{8}3h[4:1],,4h[4:1],,5h[4:1],,6h[4:1],,7h[4:1],,
{16}8,1,2,3,4,5,6,7,8,1,2,3,
{4}4<3[1:1],,,,,,6,,4>5[1:1]/7h[4:6],,,,,,
4,,3<2[1:1]/5h[4:4],,,,,,3,,
1>7[1:1]/8<2[1:1],,,,,,3/6,
{8}1,1,6,,3,4,5,6,7>3[2:1],,,,,,4,,,,6/5,,7,6,5,4,3>7[2:1],,
6,,5,,4,,3,,2/4,,2/4,,3/5,,3/5,,4/6,,4/6,,5/7,,5/7,,6/8,,1/7,,2/8,,3/1,,
4b>5[8:3],,,,{2}4b,
{8}1-4[8:1]/2-4[8:1],,,,,,7/8,,7-5[8:1]/8-5[8:1],,,,,,
3/4,,3-1[8:1]/4-1[8:1],,,,,,6/5,,6-8[8:1]/5-8[8:1],,,,2,,,,
1-6[8:1]/2-5[8:1],,,,,,7/8,,7-4[8:1]/8-3[8:1],,,,,,3,3,4h[4:1],,2,2,4h[4:1],,1,1,
4,2,5,3,6,4,7,5,8<5[8:1],,4,4,,3,4,3,5<8[8:1],,1,1,,2,1,2,8,3,7,3,6,2,5,2,4q6[2:1],,
1,,2,,3,3,7,4,6,3,5,2,4,1,5pp8[2:1],,1,,2,,3,,4/8,,3/7,,2/6,,1/5,,
8>4[4:1],,4<8[4:1],,7h[2:1],,,,{16}1,8,1,8,1-5[8:1],8,1,8,1,,,,,,,,
{8}4-8[8:1]/5,,6,,4/3-1[8:1],5,6,,
7-5[8:1]/8,,1,,1/8-4[8:1],,2,,
3>6[8:2],,6<3[8:2],,5,,4V62[4:1],,2-8[8:1],,,3,3,,,,
3,1,2,8<5[8:1],,2,,1,6,8,7,1>4[8:1],,7,,8,3,1,2,8-4[8:1],,1,,2,7,5,6,6,2,4,3,3,
5-1[8:1]/4,,3,,5/6-8[8:1],,4,,
2-4[8:1]/1,,8,,8/1-5[8:1],,7,,
6<3[8:2],,3>6[8:2],,4,,5qq1[2:1],,7,,,,8-4[8:1],,1/8,,
3-5[8:1],,6,6,2-6[8:1],,7,7,1-7[8:1]*-5[8:1],,,,3-8[8:1],,3/5,,6-4[8:1],,3,,7-3[8:1],2,2,,8-2[8:1]*-4[8:1],,,,6-1[8:1],,6/4,,
3>1[8:1],,4p8[8:1],,5q1[8:1],,6<8[8:1],,2-5[8:1],,7-4[8:1],7,1-5[8:1],,8,,
7,7,5,5>2[4:1],,6,,7,,8h[4:1],,1,{24}2/7,3/6,4/5,,,,
{4},
3h[2:1],1,4h[2:1],8,5,5/6,4/7,3/8,2>4[8:1],7,6<8[8:1],3,
{8}2,,8,1,8,,2/7,,
{4}6h[2:1],8,5h[2:1],1,4,3/4,2/5,1/6,7qq4[2:1],3,2,1,
{8}8,7,6,5,4,3,2,1,
{4}6h[2:1],8,5h[2:1],1,4,4/3,5/2,6/1,7<5[8:1],2,3>1[8:1],6,
{8}7,,1,8,1,,7/2,,
{4}3h[2:1],1,4h[2:1],8,5,6/5,7/4,8/3,
{8}2,,6,5,6,,2,4,1,8,7,6,5,4,3,2,
{8}1b/8b,,7,5,6,4,5,3,2b/1b,,3,5,4,6,5,7,8b/2b,,7,1,6,2,5,3,
4b-8[8:1],,3b-1[8:1],,7b<8[1:1],,,,,,,,,,,,,,,,,,1b/8b,
