&title=[爆]自己肯定感爆上げ↑↑しゅきしゅきソング
&artist=初星学園, ヒゲドライバー & 藤田ことね
&first=1.3
&des=くじらのてんぷら
&lv_7=14+?
&inote_1=(190)
{4}
E4,E5,E6,Cf,
{1}
,
{4}
3h[4:4],4,,4,
6h[4:4],5,,5,
2h[4:4],4,,4,
7h[4:4],5,,5,
2h[4:4],1,,1,
7h[4:4],8,,8,
3h[4:4],1,,1,
6h[4:3],8,,8,
{8}
7xb-3[4:6]/1xb-5[4:6],7xb/1xb,
{1}
,
{4}
&inote_6=
&inote_7=(190)
{4}
2b/B3/B4/A3/A4/D4/E4f,7b/D7/A6/D6/E7/E6/B6f,1b/C/B5/B3/E5/E4/B4f,B1/B2/A1/A2/D2/E2f/7b<3[4:4]b,
{1}
,
{8}
2<7[4:1],,5,5,,6,5,6,
7>2[4:1]/4,,3,3,4h[16:1],4h[16:1],4h[16:1],4h[16:1],
4/3s7[8:2],,4,4,,2,6,1,5-7-1[4:1],,2,2,
{16}
2x,3,4,5,8x,7,6,5,
{8}
2/4q8[4:1],,4/3,3,,4,7,5,5-3-1[8:2]/6,,5/7,6,5h[16:1],5h[16:1],5h[16:1],5h[16:1],
5z1[8:2]/1,,2,2,,3,7,2,6<1[8:2],,5,5,
{16}
5x,4,3,2,4x,5,6,7,
{8}
2xb/8xb,
{32}
2b-6[8:3]/8b-4[8:3],3/7,4/6,5,
{2}
,
{4}
,3,3,
{16}
2/8,,,3,
{8}
4,2/6,
1/7,1/7,1/7,1/7,1h[4:1]/7h[4:1],,,,
{32}
B6/B5/E6f/2b,3,4,5,,,,,
B3/B2/E3f/8b,7,6,5,,,,,
Cf/1b,2,3,4,5,6,7,8,1,2,3,4,5,6,7,8,
{8}
1x/4xb,
{48}
4xb,E5,B5,B6,B7,E8,
{8}
A8,5xb,
{48}
7/5xb,E5,B4,B3,B2,E2,
{8}
A1,6pp4[8:2]b,,
{48}
2qq4[8:2]b/6xb,B6,C,B1,E1,A8,D8,A7,E7,B6,B5,E5,
2xb/A4,B2,C,B7,E8,A8,D1,A1,E2,B2,B3,E4,
{24}
A4/5x,6x,7x,
{8}
8xh[8:1],
{24}
5x,4x,3x,
{8}
2xh[8:1],4xb,
{64}
4xb/3xb,D5/E4/B4/E5,A5/B5,D6/E6,A6/B6,D7/E7,A7/B7,D8/E8,
{8}
A8/B8,5xb/6xb,
{64}
5xb/6xb,D5/E6/B5/E5,A4/B4,D4/E4,A3/B3,D3/E3,A2/B2,D2/E2,
{8}
A1/B1,
{4}
8xpp8q8[4:2]b/7xp7qq7[4:2]b,
{36}
A8/A7/E8f,B8,C,B3,E3,A2,D2,A1,D1,
A8/A7/E8f,B7,C,B4,E5,A5,D6,A6,D7,
{4}
A7/A8/D8/E8f/B7/B8,
{64}
1xb/8xb,D2/D8f,E2/E8,A2/A7,B2/B7,E3/E7/C,B6/B3,B5/B4,
{8}
E5,
2xb/1xb,
{32}
1xb/2xb,3/8,4/7,5/6,
{8}
,7xb/8xb,
{32}
8xb/7xb,6/1,5/2,4/3,
{8}
,1xh[8:1]/6xh[8:1],,
{64}
2xb/5xb,D3f/D6,3/6,D4/D7,4/7,D5/D8,5/8,D6/D1,
{8}
6/1,
{64}
7xb/4xb,E7f/E4,6/3,E6/E3,5/2,E5/E2,4/1,E4/E1,
{8}
3/8,
{48}
1xb,B1,C,B5,A5,,
7xb,B7,C,B3,A3,,
{4}
8xb,
{8}
2xb/4xb,5xb/6xb,8xb/3xbv8[8:1],1xb/7xb-4[8:1],5xb/3xb-6[8:1],7xb-1[8:1],3xb,7xb,
{32}
2xb,3,4,5,6,7,8,1,2,3,4,5,6,7,8,1,2,3,4,5,6,7,8,1,
{4}
2xb/6xb,
{8}
3/5,4/6,7/5pp7[8:1],4/6,
{4}
3/5qq3[8:1],5w1[8:1]b,5,3xqq6[8:3]/7xpp4[8:3],3b/7b,,
{8}
3x-5-1[8:2],,3,6h[8:1],,6,7,2,8v3[8:1],,8,2,
{16}
4,4,4,4,4,4,4,4,
{8}
3/5-7-1[8:2],,5,2h[8:1],,2,3,8,7/4>1[8:1],,4,6,
{16}
6x,5,4,3,7x,6,5,4,
{8}
7h[8:1]/3h[8:1],,2/8,2pp1[8:2]b/8qq1[8:2]b,2/8,A5/B5f/C/B3/B7/E7/E4/B4/B6/E5/E6/A3/A7/E3/E8,,,2x/8x,,
4,4qq4pp4[8:3],4,C,,,
8pp8[8:2]b,3,8qq8[8:2]b,3,3h[8:2],,1,2,
{32}
3xb,4,5,6,7,8,1,2,
3xbqq5[8:2]/6xb,5,4,3,2,1,8,7,
{4}
3x/6xpp4[8:2]b,6x,
{8}
3,3,2,2,
{64}
8xh[4:1]/1xv7<6-4-2<1[8:4]b,D1,,D8,A7,D7,A6,D6,A5,D5,A4,D4,A3,D3,A2,D2,
{4}
1x,8x,
{8}
7x,7x,
{48}
7xbqq1[16:3],E7,B6,B5,E5,A4,
1xbpp7[16:3],E2,B2,B3,E4,A4,
{4}
,
{8}
8xh[4:1],,4x-8[8:1],3,4xw8[8:1]/2x,,4,,
{32}
5xb,4,3,2,1,8,7,6,
5xbpp5[8:3]*qq5[8:3],4,3,2,1,8,7,6,
{2}
5x,
{16}
3/7,,2,4,3,,
{8}
3/5,3/6,4/6,3/5,2/5,
{16}
2/6,,3,4,3,,1/6,,2,4,3,,1/7,,3,5,4,,1/7,,2,4,3,,
{32}
5xbqq5[8:2],6,7,8,1,2,3,4,
{4}
5xbpp5[8:2],
{16}
8x,,8x,1,2,,1,,1,2,3/7h[8:1],,2,,2,3,4/8h[8:1],,3,,3,4,5/1,,
{24}
8xbqq1[8:2]b,7,6,2xbpp1[8:2]b,3,4,
{8}
8xb,2xb,
{16}
A1,,7,7,5,,2/5,,3,3,4,,2/6,,7,7,8,,8/3,,2,2,1,,
{32}
4xbpp4qq4[8:4],5,6,7,8,1,2,3,
{4}
4xb,
{16}
A4,,7,7,7,,2x/8x,,1,1,1,,4/6,,5,5,5,,2/8,,1,1,1,,
{24}
3xbqq6[8:2],4,5,7xbpp4[8:2]b,6,5,
{8}
3xb,7xb,
{16}
C,,3,3,5,,
{8}
2x/5x,
{2}
2x-5[8:1]/4xv1[8:1],
{16}
3/8,,7,5,6,,
{8}
4/7,
{2}
4-8[8:1]b/7-5[8:1]b,
{16}
1x/5x,,2,4,3,,
{8}
8/4,
{2}
8-4[8:1]b/4-2[8:1]b,
{16}
6-3[8:1],1,7,8,6,,
{8}
1,
{2}
2-5-3[6:1]b/8-5-7[6:1]b,
{16}
2,,2,1,2,,3,4,2,,7,8,7,,6,5,7,,
2,1,3,,6,5,7,,4,8,3,7,2,6,
{16}
1,2,7,6,2,3,8,7,
{24}
2,3,4,8,7,6,1,2,3,7,6,5,
{32}
1,2,3,4,7,6,5,4,2,3,4,5,8,7,6,5,
1,2,3,4,5,6,7,8,
{48}
1,2,3,4,5,6,7,8,1,2,3,4,
(47.5)
{16}
5bxbp1[12:1]/Cf,,,,
(95)
{4}
5/6,
{64}
D8/D1/A8f,E1/E8,B7/B8/B1,B2/B6/C,B5/B3,B4/E5/E4,A3/A5,D3/D6,
{8}
A2/A6,
{4}
1x/6x<1[4:1],5,4-2-8[4:1],6,
{8}
7<3<7[8:5],7,7,,
(190)
{4}
1-4[8:1],1,1-6[8:1],1,
(95)
{8}
5-2[8:1],5,1qq1pp1[8:4]b,8,
{4}
7/A1f,5/A1f,
(190)
{12}
6xb,A7,A8,A1,A2,A3,
A4/7xb,A8,A1,A2,A3,A4,
{24}
A5/8x,A1,A2,A3,A4,A5,
A6/1x,A2,A3,A4,A5,A6,
A7/2x,3,4,5,6,7,
8/3x,4,5,6,7,8,
{16}
5/1,,2,4,3,,5,4,6,,
{8}
7p3[8:1],8,7/2,,1-4-6[8:2]b*-3-7[8:2]b,8,1,,,8,1,
{16}
2,3,8,7,1,2,7,6,8,1,6,5,1,2,7,6,
{8}
2-6[8:1],6<3[8:2],2,4-8[8:1],,4,,4,
{4}
4>6[8:2],4b/8x,5<3[8:2]b,5b/2x,4>7[6:1],4b/8x,5<1[6:1]b,5b/2x,
{16}
3x,4,5,6,2xb,3,4,5,1,2,3,4,2xb,3,4,5,
8x,7,6,5,7xb,6,5,4,8,7,6,5,1xb,8,7,6,
2,5,3,4,2,1,3,8,5,6,4,7,1,8,2,7,
3,4,1,7,5,6,2,8,3,5,1,7,4w8[8:1]b,8,2,6,
{1}
,
{32}
A1/A2/D2/B1/B2/E2f/8xb,7,6,5,4,3,,,
{32}
B6/B8/B7f/E7/E8/2xb,3,4,5,6,7,,,
{32}
B2/B3f/B4/E3/E4/8b,7,6,5,4,3,2,1,8,7,6,5,4,3,2,1,
{8}
8xb/4xb,
{48}
7xb/5xb/E5/E7f,B4/B6,B3/C,E3/B1,A2/E1,D2/A8,
{8}
,1xb/5xb,
{48}
2xb/4xb/E5/E3f,B5/B3,B6/C,E7/B8,A7/E1,D8/A1,
{8}
,2x>4[8:1]b/8xq4[8:1]b,,
{32}
8xb<6[8:1]b/A8f/2xbp6[8:1]b/A2f,D1/B8,E1/A1/B1/E3/D3,E2/D2/A2/B2/A3,
{8}
E4/D4/A4/B4/E3/D3/B3,
{32}
2xb/8xb/A2f/A8f,B2/B8,D2/E2/B1/A1/D8/E8,D1/E1/A8/B8/A7/B7/E7/D7,
{8}
A6/B6/E6/A7/B7/E7/D7,
{64}
4xw8[8:1]b/Cf,E4/D4,3,E3/D3,2,E2/D2,1,E1/D1,8,E8/D8,7,E7/D7,6,E6/D6,5,E5/D5,
{4}
4x,
{8}
2xb/6xb,
{64}
3xb/4xb/D4f,E4/D5,B4/A5,B5/D6,B6/A6,D7/B7,B8/A7,D8/E1,
{8}
A8/A1,7xb/3xb,
{64}
6xb/5xb/D6f,E6/D5,B5/A4,B4/D4,B3/A3,D3/B2,B1/A2,D2/E1,
{8}
A1/A8,3xv8[8:1]b/6x<8[8:1]b,,
{32}
6xbv1[8:1]b/3xb>1[8:1]b/B3f,B6/C/D7,A7/B8/B7,D8/A8,,,,,
{32}
6xb/3xb/B6f,B3/C/D3,A2/B1/B2,D2/A1,,,,,
7x,6,5,4,1,2,3,4,
{8}
8x,,8xb/5xb,
{64}
7xb/5xb,D7f/D5,6/4,D6/D4,5/3,D5/D3,4/2,D4/D2,
{8}
3/1,3xb/8xb,
{64}
1xb/4xb/B1f/B4,D2/D5/E2/E5,2/5/B2/B5,D3/D6/E3/E6,3/6/B3/B6,D4/D7/E4/E7,4/7/B4/B7,D5/D8/E5/E8,
{8}
5/8,
1x>3[8:1]/8xq4[8:1],,
{48}
8xb<6[8:1]/1xbp5[8:1]/A8f/A1,D2/E2/E1/B8,A1/B1/A2/B2,D2/E2/D3/E3,A2/A3/B2/E4,D4/A4/D3/E3/B3,
{8}
D5/E5/E4/B4,
{48}
1xb/8xb/A8/A1f/B8/B1,D1/E1/D8/E8,A8/A7/B7/B8,D7/D8/E7/E8,A6/E6/A7/B7,D7/E7/B6/D6/A5,
{8}
E6/B5/E5/D5,
{48}
2x/D2f/D3,E2/E3,B1/B3/C,B7/B5,E7/E6,D7/D6,
8x/D8/D1f,E1/E8,B1/B7/C,B3/B5,E4/E5,D4/D5,
{4}
1x,
{8}
2xb/4xb,6xb-4[8:1]/7xb,8xb/2xbv5[8:1],6xb-8[8:1]/1xb,2xb-7[8:1],6xb-4[8:1],2xb,6xb,
{32}
1xb,2,3,4,5,6,7,8,1,2,3,4,5,6,7,8,1,2,3,4,5,6,7,8,
{4}
1xb/5xb,
{16}
3/7,,6,5,7,,3-7[8:1]b,4,1-5[8:1]b,,
{48}
3xb,B3,C,B7,A7,,
1xb,B1,C,B5,A5,,
{8}
8x-4[8:1],7x,8/2q6[8:1],1,2/7,8,
{48}
7xbqq8[8:2],E7,B6,B5,E5,A4,
1xb,B1,C,B5,A5,,
{8}
7x,1x,
{16}
2,1,3,,5-1[8:1]b,4,7-4[8:1]b,,
{48}
5xb,B5,C,B1,A1,,
7xb,E7,B6,B5,E5,A4,
{32}
2xv5[8:1],3x,4x,5x,,,,,
2x/1x,8,7,6,,,,,
{16}
3x,4x,
{32}
2xb,3,4,5,6,7,8,1,
2xb/6xb,5,4,3,2,1,8,7,
{2}
2xbh[4:1]/6xbh[4:1],7xbh[4:1]/3xbh[4:1],
{48}
6xb,B6,C,B1,E1,A8,D8,A7,E7,B6,B5,E5,
3xb/A4,B3,C,B8,E1,A1,D2,A2,E3,B3,B4,E5,
{32}
A5/6xb,7,8,1,2,3,4,5,
6xb/2xb,1,8,7,6,5,4,3,
{8}
2xb/6xb,3xb/4xb,5xb/7xb-5[8:1]b,1xb/3xbv6[8:1]b,2xb/7xb-1[8:1]b,3xb-8[8:1]b,7xb,3xb,
{32}
7xb,6,5,4,3,2,1,8,7,6,5,4,3,2,1,8,7,6,5,4,3,2,1,8,
{4}
7xb/3xb,
{8}
4/6,2/5,3/7,2/5,
{4}
1>4[8:1]/7<4[8:1],1-5[8:1]b/7-3[8:1]b,1/7,
{32}
6xb/3xb,B6/B3,C,B1/B8,E1,A8/A1,D8/D2,A7/A2,E7/E3,B6/B3,B5/B4,E5,
{8}
,
{4}
5xw1[8:1]b,
{2}
D2/D8/A2/A7/E2/E3/E5/E7/E8/B2/B3/B4/B5/B6/B7/Cf,
{16}
3/7,,6,5,6,,
{8}
7,5/7>2[8:1]b,,4,4,,3,4,2,2z6[6:1]/5,,7,7,
{16}
8,8,8,8,8,8,8,8,
{8}
7z3[6:1]/1,,2,2,,1,2,5,6/4-2-8[8:2],,7,7,
{16}
7,6,5,4,3,2,1,8,
{4}
7x>2[4:6]b/A4A3/D4/B4/B3/E4f,D7/D6/A6/E7/E6/B6f,A1/A8/D1/E1f/B1/B8,Cf,
{1}
,,,,
