&title=一千光年
&artist=いよわ、[vocal初音ミク、v_flower、歌愛ユキ、GUMI、可不、星界、足立レイ、裏命、花隈千冬、VY1、SOLARIA]
&first=0.047
&lv_4=
&des_4=
&inote_4=
(192)
E
&lv_5=
&des_5=
&inote_5=
(192){4},
E
&lv_6=
&des_6=
&inote_6=
(192)
E
&lv_7=13+?
&des_7=Kuilc0205
&inote_7=
(192){4},{16},,,,,,,,,,,,C,
,,C,,,,,,,,,{4}B7/B6/E7/Cfh[16:1491],
,,,,,,,,1,
1,1,1,
1,1,1,1,
2,2,2,2,
3,3,3,3,
B2/B3/E3,{8}8x,8x,,7,{4}7,
{8}6,6,,5,{2}5-7[8:1],
{4}B7/B6/E7,{8}1x,1x,,2,{4}2,
{8}B1,B2,B3,E4,1x,1,1,B2/B3/E3,
{16},,7x,6x,{4}5x,7-5[8:1],7,
{8}8x,8,1,1<6[8:1],,,,B7/B6/E7,
,2x,{4}2-4[8:1],2-8[8:1],2,
{8}1x,1,2,2,,2x-5[8:1],,2bx,
,1x-4[8:1],1,1bx,,2x-5[8:1],2,2bx,
,1x-4[8:1],1,1bx,,8x-3[8:1],8,8bx,
,7x-2[8:1],7,7bx,,8x>5[8:3],8,8b,
,,,,,,{4}B2/B3/E3,
{8}7x,7,8,8,{4}8,{8}5,5,
{4}5,{8}7,7,{4}7,B7/B6/E7,
{8}1x-3[8:1],3x-5[8:1],{4}1x,{8},,3,3,
2h[4:1],,,1,{4}1,B2/B3/E3,
{8}A8,B6,A7,B8,{4}E5,{8}E7,B7,
{4}B8,{8}B4,B5,{4}B7/B6/E7,{8}3x,3,
3,3,2,2,{4}2h[8:1],{8}2,3,
{4}3h[8:1],{8}3,2,2,2,{4}B2/B3/E3,
{8},7x,7,7,6,6,7,7,
{4}8-6[8:1]*<6[8:1],8-2[8:1]*>2[8:1],8,B7/B6/E7,
{8},2bx,2bx,3bx,{4}4bx,{8}1bx,2bx,
3bx,4bx,5bx,4bx,{4}2bx,B2/B3/E3,
{8},8x,7-4[8:1],7,{4}7,{8}8x<6[8:1],8x,
{4}8x>2[8:1],8x-5[8:1],8x,B7/B6/E7,
{8}2x,2,1,1,{4}2<8[8:1],2,
{8}1x,1x,2,2,2b,,,B2/B3/E3,
,B7,A7,E7,B6,B5,E5,A5,
E6,B7,B8,B1,{2}B7/B6/E7,
{8}1,1,2,2,3,3,2,2,
3,3,4,4,{4}2b,B2/B3/E3,
{8}6x,6x,7x,7x,B5,B7,B1,B6,
7x,6x,7x,6x,{4}7x,B7/B6/E7,
{8}1x,1,1,1,{4}1,{8}3,3,
{2}2h[4:1],B2/B3/E3f,
{32}8x,7x,6x,5x,,,,,8x,7x,6x,5x,,,,,7x,8x,1x,2x,,,,,7x,8x,1x,2x,,,,,{8}7b,
7b,{4}7b,B7/B6/E7f,{8}1x,1x,
{32}1x,2x,3x,4x,,,,,2x,3x,4x,5x,,,,,3x,2x,1x,8x,,,,,2x,1x,8x,7x,,,,,{8}2b,
2b,{4}2b,B2/B3/E3f,{8}8x,8x,
{4}8x<3[4:1],{8},,,,4x,5x,
{4}6-8[8:1],6,6x-8-2-4-6[2:3],7bx-1-3-5-7b[4:5],
{8},,,,,,,,,,,,,5,
5,{16}4x,5x,
6x,7x,8x,1x,{4}2bx,7x-4[8:1],7x,
{8}8xV64[4:1],8x,{4}8x,{8},B7/B6/E7,2x,3,
{4}3x-8[8:1],3,2x-7[8:1],2x,
{8}1x>3[8:1],3x<5[8:1],,,,3,,B7/B6/E7,
{16},,1x,2x,{8}3x,B2/B3/E3f,{16},,8x,7x,{8}6x,B7/B6/E7f,
,2,2,B2/B3/E3,,7,7,B7/B6/E7,
,1,1,B2/B3/E3,,8,8,B7/B6/E7,
{16}A1,D2,A2,D3,E3,B2,B1,E1,A8,D8,A7,E7,{8}B7,B2/B3/E3,
,8x-5[8:1],8,8bx,,7x-4[8:1],7,7bx,
,8x-5[8:1],8,8bx,,1x-6[8:1],1,1bx,
,2x-7[8:1],2,2bx,,1,1,1b,
,,{4}B2/B3/E3,B7/B6/E7,B2/B3/E3,
B7/B6/E7,B2/B3/E3,B7/B6/E7,{8}1b,1b,
{4}B2/B3/E3f,{8}B1,B7,A1,A7,E7,E2,
A6,B8,6x,7x,6x,8x,7b,7b,
{4}B7/B6/E7,1-5[8:1],{32}1b,B1f,,,,,,,,,,,,,,,{4}1-5[8:1],
{32}1b,B1f,,,,,,,,,,,,,,,{4}1-5[8:1],
{32}1bq4[2:1],B1f,{4},,,{16},{8}3x,
,2,2,2,,1,1,1,
{4}B2/B3/E3,8-6[8:1],8-2[8:1],8<6[8:1],
8>2[8:1],8-6[8:1],8-2[8:1],8,
B7/B6/E7,1x-4[8:1],1,8x-3[8:1],
8,2x-5[8:1],2-8[8:1],2b,
B2/B3/E3,8-4[8:1],{32}8b,B8f,,,,,,,,,,,,,,,{4}8-4[8:1],
{32}8b,B8f,,,,,,,,,,,,,,,{4}8-4[8:1],
{32}8bp5[2:1],B8f,{4},,,{16},,,{8}7,
7,6,6,5,5,6,6,
{4}B7/B6/E7,1>5[8:11],1,1,
1,1,1,1x,
B2/B3/E3,8<4[8:11],8,8,
8,8,8,8x,
B7/B6/E7,{32}1b>5[8:3],B1,,B5,{8}A5,{32},,,,,,,,,,,,,,,,8b>4[8:3],
B8,,B4,{8}A4,{4},,,{32}1b,
B1,,B5,{8}A5,{4}B2/B3/E3,B7/B6/E7,B2/B3/E3,
{16}B8,E8,A7,D7,A6,E6,B6,B7,E8,A8,D1,A1,B1,B8,{8}E8,
{4}B7/B6/E7,1pp1pp1pp1pp1[1:1],1,A1,
A1,A1,A1,{8}1b,1b,
{4}B2/B3/E3f,8<5<8<5<8[1:1],8,A5,
A8,A5,A8,{8}8b,8b,
{4}B7/B6/E7f,1-5[8:1],{32}1b,B1f,,,,,,,,,,,,,,,{4}1-5[8:1],
{32}1b,B1f,,,,,,,,,,,,,,,{4}1-5[8:1],
{32}1bq4[2:1],B1f,{4},,{16},,,A4,E4,B3,B2,
A2,D2,A1,B1,B8,B7,E7,A7,{8}8x-4[8:1],1x-5b[8:1],
E
