&title=UwU Funk
&artist=Lunak
&first=0.35
&des=★Pigeon Pop★
&des_5=★Pigeon Pop★
&lv_5=13
&inote_5=(126)
{4},,,,
{16}2,,,2,E7/B6,,3,,4-7[8:1],,4-1[8:1],,4,,,,
{16}7,,,7,E3/B3,,6,,5-2[8:1],,5-8[8:1],,5,,,,
{16}1,,,1,E8/D8,,2,,3v1[8:1],,4,,5h[8:1],,,,
{4}2b/8b,4b/6b,2b/7b,B1/B2/B3/B4/B5/B6/B7/B8/E1/E2/E3/E4/E5/E6/E7/E8/Cf,
{4}2xpp2[16:3]/7xqq7[16:3],2x/7x,1x>4qq2[16:3]/8x<5pp7[16:3],1x/8x,
{4}2xpp2[16:3]/7xqq7[16:3],2x/7x,1x>4qq2[16:3]/8x<5pp7[16:3],1x/8x,
{32}6bxh[8:1]/E5,C,E1,,,,,,6xh[8:1]/E5,C,E1,,,,,,6xh[8:1]/E5,C,E1,,,,,,6xh[8:1]/E5,C,E1,,,,,,6xh[8:1]/E5,C,E1,,,,,,6xh[8:1]/E5,C,E1,,,,,,6xh[8:1]/E5,C,E1,,,,,,6xh[8:1]/E5,Cf,E1,,,,,,
{4}3bxh[8:1]/4bxh[8:1],5h[8:1]/6h[8:1],4h[8:1]/5h[8:1],1h[8:1]/8h[8:1],7h[8:1]/6h[8:1],2h[8:1]/3h[8:1],3h[8:1]/4h[8:1],5h[8:1]/6h[8:1],
{48}4bx/5bx,3x/6x,2x/7x,1x/8x,,,,,,,,,4x/5x,3x/6x,2x/7x,1x/8x,,,,,,,,,4x/5x,3x/6x,2x/7x,1x/8x,,,,,,,,,4x/5x,3x/6x,2x/7x,1x/8x,,,,,,,,,4x/5x,3x/6x,2x/7x,1x/8x,,,,,,,,,4x/5x,3x/6x,2x/7x,1x/8x,,,,,,,,,4x/5x,3x/6x,2x/7x,1x/8x,,,,,,,,,4x/5x,3x/6x,2x/7x,1x/8x,,,,,,,,,
{8}7bp3[8:1],8,2q6[8:1],1,7p3[8:1],8,2q6[8:1],1,7p3[8:1],8,2q6[8:1],1,7p3[8:1],8,2q6[8:1],1,7p3[8:1],8,2q6[8:1],1,7p3[8:1],8,2q6[8:1],1,7p3[8:1],8,2q6[8:1],1,7p3[8:1],8,2,1,
{48}6bx/7bxh[8:1],,,,,,,,,,,,1h[8:1]/2,E3,B3,B4,,,,,,,,,6/7h[8:1],,,,,,,,,,,,1h[8:1]/2,E3,B3,B4,,,,,,,,,6/7h[8:1],,,,,,,,,,,,1h[8:1]/2,E3,B3,B4,,,,,,,,,6/7h[8:1],,,,,,,,,,,,1h[8:1]/2,E3,B3,B4,,,,,,,,,6/7h[8:1],,,,,,,,,,,,1h[8:1]/2,E3,B3,B4,,,,,,,,,6/7h[8:1],,,,,,,,,,,,1h[8:1]/2,E3,B3,B4,,,,,,,,,6/7h[8:1],,,,,,,,,,,,1h[8:1]/2,E3,B3,B4,,,,,,,,,6/7h[8:1],,,,,,,,,,,,1h[4:1]/2,E3,B3,B4,,,,,,,,,
{32}5bx,4x,3x,2x,1x,8x,7x,6x,1x/5x,4x/8x,3x/7x,2x/6x,1x,8x,7x,6x,5x,4x,3x,2x,1x,8x,7x,6x,1x/5x,4x/8x,3x/7x,2x/6x,1x,8x,7x,6x,5x,4x,3x,2x,1x,8x,7x,6x,1x/5x,4x/8x,3x/7x,2x/6x,1x,8x,7x,6x,5x,4x,3x,2x,1x,8x,7x,6x,1x/5x,4x/8x,3x/7x,2x/6x,1x,8x,7x,6x,5x,4x,3x,2x,1x,8x,7x,6x,1x/5x,4x/8x,3x/7x,2x/6x,1x,8x,7x,6x,5x,4x,3x,2x,1x,8x,7x,6x,1x/5x,4x/8x,3x/7x,2x/6x,1x,8x,7x,6x,5x,4x,3x,2x,1x,8x,7x,6x,1x/5x,4x/8x,3x/7x,2x/6x,1x,8x,7x,6x,5x,4x,3x,2x,1x,8x,7x,6x,1x/5x,4x/8x,3x/7x,2x/6x,,,,,
{32}3x>8[16:1],,,,,,,,7x,6x,5x,4x,7x,6x,5x,4x,3x>8[16:1],,,,,,,,7x,6x,5x,4x,7x,6x,5x,4x,3x>8[16:1],,,,,,,,7x,6x,5x,4x,7x,6x,5x,4x,3x>8[16:1],,,,,,,,7x,6x,5x,4x,7x,6x,5x,4x,3x>8[16:1],,,,,,,,7x,6x,5x,4x,7x,6x,5x,4x,3x>8[16:1],,,,,,,,7x,6x,5x,4x,7x,6x,5x,4x,3x>8[16:1],,,,,,,,7x,6x,5x,4x,7x,6x,5x,4x,3x>8[16:1],,,,,,,,7x,6x,5x,4x,,,,,
{4}1x-4-1-4-1-4-1-4-1-4-1-4-1-4-1-4-1-4-1-4-1-4-1-4-1-4-1-4-1[2:7]/8x-5-8-5-8-5-8-5-8-5-8-5-8-5-8-5-8-5-8-5-8-5-8-5-8-5-8-5-8[2:7],C,,C,,C,,C,,C,,C,,C,,A8/D1f/A1,
{4}1x<6<1<6<1<6<1<6<1<6<1<6<1<6<1<6<1<6<1<6<1<6<1<6<1<6<1[4:13]/2v5v2v5v2v5v2v5v2v5v2v5v2v5v2v5v2v5v2v5v2v5v2v5v2v5v2[4:13],C,,C,,C,,C,,C,,C,D8f/B2,A8/Cf,A1/D2f/A2,
