&title=Ambiguous Morality
&artist=Adam Gubman
&first=0
&des=Sc_Ar
&wholebpm=133
&lv_5=13+
&inote_4=
&inote_5=(133)
{1}
,,,,,,,
{48},,,,,,,,,,,,,,,,,,,,,,,,,,,,,,,,,,,,,
{48}5w1[8:1],,,,,,,,,,,,,,,,,,,,,,,,,,,,,,,,,,,,,,,,,,,,,,,,,,,,,,,,,,,,,
{32},E1,E2/E8,E3/E7/Cf,E4/E6,E5,,,{48},,,,,,,,,,,,,,,,,,,,,,,,,,,,,,,,,,
{4}4/5,4/5,{16}4/5,,,4,{12}5pp4[4:1],4,,{4}4/5,3,
{16}3/4,,,3,{12}4pp3[4:1],3,,{4}3/4,2,{16}2/3,,,2,{12}3pp2[4:1],2,,{4}2/3,1,1/8,1/8,
{8}1h[4:1]/8,7,6qq1[16:7],4,{16}8,,,1>7[16:9],,,2h[8:5],,{4},,,3,
{8}5h[4:1]/4,3,2-6[8:1],6V41[4:1],{16}2,,,7,,,8<2[8:5],,{4},1,8,7,
{8}6h[4:1],4,3V58[4:1],6-2[8:1],3,,,,{8}1h[4:1],7,5v4[8:1]*-7[12:1],4-2[12:1]*-2[12:1],5,,,,
{8}7h[4:1],5,4h[4:1],2,{16}1h[16:3],,,3>5[16:9],,,{8}3h[8:5],,,,,,,4,,
{8}7V51[16:3],5,1/7,2,3-8[12:1]*-7[12:1],,3,,
{8}2V48[16:3],4,8/2,7,6-1[12:1]*-2[12:1],,6,,
{8}1p4[8:1],4p7[8:1],1/7,6,5V31[8:1]*v2[8:1],,5,,
{8}8q5[8:1],5q2[8:1],8/2,3,4V68[8:1]*v7[8:1],,4,,
{8}1h[4:1],7,8v5[8:1],5v2[8:1],8/3h[2:1],,,,
{8}5h[4:1],2,3-8[8:1],8s4[16:3],3/7h[8:3],,,,
{4}2v5[12:1]/8q4[12:1],2/8,{8}6h[4:1],1,4>6[16:9],7h[8:7],,,,,,,C,,
{4}1b/8b,{8}2h[4:1]/4,5p1[8:1],{16}6,,5,7h[16:9],,,6,,{8}5,4q8[16:3],{16}3,,4,2h[16:5],,,,,,,,,
{4}8/1,{8}7h[4:1]/5,4q8[8:1],{16}3,,4,2h[16:9],,,3,,{8}4,5p1[16:3],{16}6,,5,7h[16:5],,,,,,,,,
{4}1/8,{8}2h[4:1]/4,5p1[8:1],{16}6,,5,7h[16:9],,,6,,{8}5,4q8[16:3],{16}3,,4,2h[16:5],,,,,,,
{8}7,8hbx[4:1]/A4/A3/E4f,,,,2hbx[4:1]/A5/A6/E6f,,,,{8}5<8[12:1]*>2[12:1],1,5w1b[12:1],,
{64}5b,B5/B1/Cf/B2/B8,,,,,,,{8},,,
{16}3,5,4,5,2,5,4,5,1,5,4,5,8b<5[12:1],,,,
{8}8/4,3-7[12:1],2,3/7,6V84[6:1],5,6/2>5[12:1],1,
{8}2/6,7-3[12:1],8,7/3,4V26[6:1],5,4/8,7,8/1,2/4,5/7,1/8,7/5,4/2,1qq7[8:1]/8,7>6[16:5]/5,{16}1b,,,6q3b[6:1],,,
{8}Cf,,8,1>4[12:1],2,{8}1/5,6-2[12:1],7,6/2,3V15[6:1],4,3/7<4[12:1],8,
{8}7/3,2-6[12:1],1,2/6,5V73[6:1],4,5/1,2,1-5b[12:1]/8b,2,1b/7-3b[12:1],6,7b/4-8b[12:1],5,4b/6-2b[12:1],7,
{8}6b/1,8,1>5[8:1],5<1[8:1],1,,,,
{16}7q4[8:3],,,8,,,4>8[8:3],,,3,,,8p3[8:3],,,7,,,3<8[8:3],,,2,,,{8}1,2,3/A8/E1/E8/B8f,,
{16}2p5b[8:3],,,1,,,5<1b[8:3],,,6,,,1q6b[8:3],,,2,,,6>1b[8:3],,,7,,,{8}8,7,6/A1/E1/E2/B1f,,
{16}7bxh[16:3]/E5/B5f,,,1x,,,3bxh[16:3]/E1/B1f,,,5x,,,8bxh[16:3]/B4/B3f,,,2x,,,4bxh[16:3]/B8/B7f,,,6x,,,
{16}7x/8x,,,4/3,,,2/1,,5/6-1V74[4:1],,,,6/3-7b[12:1],,,,{64}3b,Cf,,,,,,,,,,,,,,,
{16}2x/1x,,,5/6,,,7/8,,4/3-8V25[4:1],,,,3/6-2b[12:1],,,,{64}6b,Cf,,,,,,,,,,,,,,,
{16}3x/4x,,,8/7,,,6/5,,1/2-5V38[4:1],,,,2/7-3b[12:1],,,,{64}7b,Cf,,,,,,,,,,,,,,,
{16}6x/5x,,,1/2,,,3/4,,8/7-4V61[4:1],,,,7/2-6b[12:1],,,,{64}2b,Cf,,,,,,,,,,,,,,,
{16}7h[8:3]/8,,,5,,,2v5[8:1],,5>8[4:1],,2,,8,,7,,6,,5,,
{16}2h[8:3]/1,,,4,,,7v4[8:1],,4<1[4:1],,7,,1,,2,,3,,4,,
{16}6h[8:3]/5,,,8,,,3v8[8:1],,8>5[4:1],,3,,5,,6,,7,,8,,
{16}3h[8:3]/4,,,1,,,6v1[8:1],,1<4[4:1],,6,,4,,3,,2,,1,,
{4}5/4,5/4,{16}5/4,,,5,{12}4qq5[4:1],5,,{4}5/4,6,
{16}6/5,,5,6,{12}5qq6[4:1],6,,{4}6/5,7,{16}7/6,,,7,{12}6,7h[6:1],,
{16}4,6,5,6,3,5,4,5,2,4,3,4,1,3,2,3,
{2}8b,3/B6f/E7,7/B2f/E2,{4}4/B7f/E8,{2}6/B3f/E3,1/B6f/E6,5/B2f/E2,{4}2/B5f/E6,7/B2f/E3,3/B7f/E8,6/B3f/E3,
{4}8h[4:1]/1,7h[4:1],6h[4:1],5h[4:1],4h[4:1],3h[4:1],2h[4:1],1h[4:1],
{16}8,7,6,5,4,3,2,1,8,7,6,5,4,3,2,1,
{32}8,7,6,5,4,3,2,1,8,7,6,5,4,3,2,1,8x/E1,7x/E8,6x/E7,5x/E6,4x/E5,3x/E4,2x/E3,1x/E2,
{32}8x/E1,7x/E8,6x/E7,5x/E6,4x/E5,3x/E4,2x/E3,1x/E2,
{4}8bx-4[12:1]/E1f,7/8,{16}1qq5[4:1]/2,,,3,1,,4,,{4}3p7[12:1],3/4,{16}5qq1[4:1]/6,,,6,5,,7,,
{4}8<5[12:1],2/8,{16}2qq5[4:1]/4,,,4,2,,5,,{4}6q2[12:1],6/4,{16}8qq3[4:1]/6,,,2,8,,3,,
{4}4b-8b[12:1],3b/4b,{16}5bqq1b[4:1]/6,,,7bx,5,,8bx,,{4}7bp3b[12:1],7b/8b,{16}1bqq5b[4:1]/2,,,2bx,1,,3bx,,
{4}4b-1b[12:1],4/E7f/A7/A6,7b-2b[12:1],7/E5f/A4/A5,3b-6b[12:1],3/E1f/A8/A1,8b-5b[12:1],8/E3f/A3/A2,
{4}1>8[2:1]/5h[4:1],,1h[4:1],{16},2,3,4,{4}5w1[12:1],,
{8}7h[8:1]/8,5h[8:1],2<4[4:1],,2h[4:1],,,2,3h[8:1]/4,1h[8:1],6>8b[4:1],,6h[4:1],,,6,1/7,2,3-8V25[16:5]/4,{16}5,5,
{8}3,6,7-4V61b[4:1],8,7,2,3V58V26[12:5],5,{16}3b,,,6,,,Cf,,,,
{8}7h[8:1],1,2,3h[8:1]/4,8,5/6h[8:1],1,2/4h[8:1],8,5h[8:1]/7,1,3/4,1/8,5/6,1/8,3/5,1/7,4p8b[12:1]/6,2/8,
{16}4b/6q2b[12:1],6,,,6b/1q5b[12:1],1,,,1b/7p3b[12:1],7,,,
{16}7b/4,4,,,{8}5/2h[8:1],7h[8:1],4h[8:1],{16}6-8[8:1],,8v1[16:3],,,1-3[8:1],,,3,
