&title=輪廻
&artist=山本美禰子
&first=0.24
&des=Azuki さくら、もゆ。 -as the Night’s,Reincarnation OP2
&lv_5=12
&lv_6=12+
&inote_5=(179)
{1},
{8},,
{8}1p4[1:2],,,,,,,,
{8}7,,,,,,,,
{8}8q5[1:2],,,,,,,,
{8}2,,,,,,,,
{8}1p4[1:1],,,,,,,,
{8}8q5[8:7],,,,,,,,
{8}1h[8:7],,,6,,7,,8,
{8},72,,36,,4,5,,
{8}1>4[2:1],,5,,6,,7,,
{8}8<5[2:1],,4,,3,,2,,
{8}6p1[8:4]/2>5[8:4],,,,,,,,
{8}4v2[8:3]/8v6[8:3],,,,,,,,
{8}18,,3,24,,5,46,,
{8}8,1,7,2,1,3,8,47,
{8}56,,4,35,2<4[2:1]/6h[2:3],,,,
{8},,,,3,,2,,
{8}1pp4[4:3],,,,,,,,
{8}6pp4[2:1],,,,,,,,
{8}4q7[8:7]/3,,,,,,1,1,
{8}2,,,3h[8:3],,,7,4,
{8}5>2[8:3],,6,6<1[8:3],,,,,
{8}2h[2:1],,,,4,,5,,
{8}5p2[8:7]/6,,,,,,8,8,
{8}7,,,6h[8:3],,,2,5,
{8}4<7[8:3],,3,3>8[8:3],,,,,
{8},7h[8:1],5,6h[8:1],2,7h[8:1],4,5h[8:1],
{8}2>5[8:3],,6,,7,,8,1,
{8}1>4[8:3]
,,6,6,,,7,7,
{8}8-4[8:3],,3,3,,2,,1,
{8}4-7[8:3],,2,,3,,4,,
{8}5h[4:2],,,,6,,7,4,
{8}5-1[8:1],,4,4-8[8:1],,6,
{8}6-2[8:1],,4>7[8:5],,,,,,
{8},,,6h[8:1],5h[8:1],4h[8:1],3h[8:1],2h[8:1],
{8}1h[8:1],8,8<4[4:1],,4>8[4:1],,8<4[4:1],,
{8}4>5[2:1],4,,,,,,,
{8}4h[8:2],5,6h[8:2],,5,4,,3-6[8:1],
{8},6<3[8:3]*q3[8:3],,,,,,,
{8}3,4,3h[8:2],,2,2h[2:1],,,
{8},1,1h[4:1],,4h[4:1],,5h[4:1],,
{8}7h[4:1],,3h[8:3],,1>5[4:1]*<5[4:1],1,,,
{8},,5w1[8:1],,,,3b/7b,,
{8}1-5[8:1],1,7,,8p4[8:1],8,,,
{8}2q6[8:1],2,8,,7-3[8:1],7,,,
{8}1V35[4:1],1,5V71[4:1],,1,1,
{8},,37,,4b/6b,,4,3b/5b,
{8},6,5b/7b,,4,5,3,6,
{8}2,7,1,8,,27,2/7p5[4:1],,
{8},,,,2b,,7-4[8:1],7,
{8},8<5[8:1],,81,,3,3h[4:1],,
{8}2,,8-4[8:1],,18,,1,2>5[8:1],
{8},2/8q1[8:3],,8h[8:3],,,,,
{8}3-1[8:1],,4,,5-8[8:1],,4,4-1[8:1],
{8},4,5,6,6-8[8:1],,5,5-2[8:1],
{8},5,7-5[8:1],,8-4[8:1],,1,1<5[4:1],
{8},3,3,,
{16}4,,,,36,,,,
{16}4,5,3,6,2,,,,
{8}7b,,2-5[8:1],2,
{8},1>4[8:1],,18,,6,6h[4:1],,
{8}7,,1-5[8:1],,18,,8,7<4[8:1],
{8},7/1p8[8:3],,1h[8:3],,,,,
{8}6-8[8:1],,5,,4-1[8:1],,5,5-8[8:1],
{8},4,,3-1[8:1],,3,4,,
{8}4-7[8:1],,2-4[8:1],,1-5[8:1],,8,8>4[4:1],
{8},6,6,,7,,6,,
{16}5,4,6,3,7,,,,82,,2,,27,,2,,
{8}63,6,46,6,35,3,46,6,
{8}78,21,43,65,7h[8:1],1h[8:1],6h[8:1],4h[8:1],
{8}8h[8:1],1h[8:1],5h[8:1],3,2b/6b,,,,
{8}5pp8[1:1]/4h[4:1],,,3h[4:1],,,2h[2:1],,
{8},,,,1pp4[8:7]/8,,7,,
{8}6,,5,,5h[8:3],,,3h[8:2],
{8},4,25,,56,,47,,
{8}34,,25,,6<1[8:4],,,,
{8},,,,2q5[8:4],,,,
{8},,,,6h[8:7],,4,4,
{8}4,4,4,4h[8:4],8,
{8}8,8,8h[8:3],
{16}2,,2,,2-6[4:17],,3,4,
{16}5bV71[1:4],,,,,,,,
E
&inote_6=(179)
{1},
{8},,
{16}2h[16:14]/7,,,,7,,6,,,,5,,,,4h[8:4],,
{16},,,,1,,2,,,,,,3,,,,
{16}4h[8:5],,,,1,,8,,,,7,,,,1,,
{16}8,,2,,7,,3,,6,,4,,5,,,,
{16}7h[16:12]/2,,,,3,,4,,,,,,5h[16:16],,,,
{16}8,,,,8,,7,,,,,,6,,,,
{16}6h[16:10],,,,1,,2,,,,3h[16:8],,,,8,,
{16},,7,,,,61,,,,25,,34,,,,
{16}46,,,,56,,,,4h[8:1],,3h[8:1],,2h[8:1],,1>4[16:4],,
{16},,6,,7,,8<5[16:4],,,,,,4,,,,
{16}2,,,,3,,5h[4:1],,,,7,,,,6,,
{16}1,,5,,2,,4,,3h[16:8],,,,,,,,
{16}5,,1,,1,,35,,2,,2,,5h[8:1],,4h[8:1],,
{16}6,,2,,2,,46,,3,,3,,2,,1,,
{16}86,,,,15,,26,,7>5[8:3]/3,,,,4,,,,
{16}8,,,,1,,,,2h[16:4],,,,4h[4:1],,,,
{16}3h[16:16],,,,,,,,,,,,,,,,
{16}8,7,6,5,4,1,2,3,4,5,8,7,6-2[8:1],,,,
{16}3b,,,,4/1,,4h[8:1]/1-7[8:1],,,,,,5-3[8:1],,,,
{16}2,,,,2,,2-6[8:1],,,,,,4-8[8:1],,4,,
{16}4,,,,6>2[4:1]*<6[2:1],,6,,,,,,,,,,
{16}2,,,,,,,,62,,,,,,,,
{16}6,,,,5/8,,5h[8:1]/8-2[8:1],,,,,,4-6[8:1],,,,
{16}7,,,,7,,7-3[8:1],,,,,,5-1[8:1],,5,,
{16}5,,,,3<7[4:1]*>3[2:1],,3,,,,,,,,,,
{16}7,,2,,8,,1,,6,,3,,5,,4,,
{16}7-5[8:1],,,,4-2[8:1],,,,8-6[8:1],,,,5-3[8:1],,5,,
{16}5,,,,6,,6h[16:10],,,,,,7,,8,,
{16}1,,,,1-7[8:1]*-3[8:1],,1,,,,,,,,7-3[8:1]/3-7[8:1],,
{16},,,,,,,,7-5[4:1],,,,5v4[4:1],,,,
{16}4-2[4:1],,,,,,,,1,,,,2-4[8:1],,2,,
{16}5-7[8:1],,,,5,,1-3[8:1],,,,1,,8h[16:8],,,,
{16}3h[4:1],,,,,,,,38,,,,47,,56,,
{16},,5h[8:1],,6h[8:1],,4h[8:1],,7h[8:1],,3h[8:1],,8h[8:1],,2h[8:1],,
{16}1<6[4:1],,,,6>3[4:1],,,,3>6[16:7],,,,8,,8,,
{16}4,,,,,,4-8[8:1],,,,,,6,,6,,
{16}6>2[4:1],,,,2-6[16:3],,2,,
,,,,
,,,,
{16}17,,,,
2-5[8:1]/6-1[8:1],,26,,
,,,,
48,,37,,
{16}26,,,,15,,1h[16:8]/5,,,,,,,,7,,
{16}7h[4:1],,,,5h[4:1],,,,3h[4:1],,,,1h[4:1],,,,
{16}7,,,,18,,1-5[8:1]/8-4[8:1],,,,,,,,,,
{16}4-2[8:1]/5-7[8:1],,,,,,,,8b/1b,,,,2/4h[4:1],,2,,
{16}3h[8:3],,,,8,,8,,,,47,,47,,6h[8:1],,
{16}5b,6,4,7,5h[8:1],,6p3[2:1],,,,,,3,,3>5[16:8],,
{16}3,,,,4-8[8:1],,4,,,,,,,,78,,
{16}15,,,,12,,84,,,,3/4<6[8:1],,,,1,2,
{16}3b,,,,85,74,3b/6b,,
,,14,25,6b/3h[16:6],,7,,
{16},,7,,7-3[8:1]*-3[8:1],,,,3b,,,,,,,,
{16}6q8[16:5]/5,,,,1/6,,2,,,,3h[4:1],,,,8h[8:3],,
{16},,,,3V15[4:1],,,,5V31[4:1],,,,8<5[8:1],,,,
{16}8,,,,8>3[8:1],,8,,,,4,,5,,6,,
{16}78,,,,18,,,,1/2-6[8:1],,,,3-7[8:1],,,,
{16}4-8[8:1],,,,5,,5h[8:3],,,,,,,,1-5[8:1]/5-1[8:1],,
{16}15,,,,,,1<5[8:1]/5>1[8:1],,,,15,,,,8h[8:3],,
{16}7,,6,,5h[8:3],,2,,3,,4,,5-7[8:1]*-8[8:1],,,,
{16}5-3[8:1]*-2[8:1],,,,5w1[8:1],,,,5,,,,7b/3b,,,,
{16}3p1[16:5]/4,,,,8/3,,7,,,,6h[4:1],,,,1h[8:3],,
{16},,,,6V84[4:1],,,,4V68[4:1],,,,1>4[8:1],,,,
{16}1,,,,1<6[8:1],,1,,,,5,,4,,3,,
{16}21,,,,81,,,,8/7-3[8:1],,,,6-2[8:1],,,,
{16}5-1[8:1],,,,4,,4,,,,8-4[8:1]/4-8[8:1],,,,48,,
{16},,,,8>4[8:1]/4<8[8:1],,,,48,,,,15,,,,
{16}4,,3,,2,,5,,6,,7,,4-1[8:1]*>1[8:1],,,,
{16}4<7[8:1]*-7[8:1],,,,4,,,,1,,3,8,2,1,3,,
{16}8-3[8:1],,8,,4-7[8:1],,4,,1-6[8:1],,1,,5-2[8:1],,5,,
{16}8<5[8:1],,8,,8/1>4[8:1],,1,,1/8<5[8:1],,8,,8/1>4[8:1],,1,,
{16}1<2[16:12],,,,6,,6h[16:6],,,,,,,,,,
{16}7h[8:4],,,,,,,,1-5[8:1],,,,1,,6-2[16:2],,
{16},,6,,4w8[16:8],,,,,,,,,,,,
{16},,,,24,,2,,21,,2,,23,,2,,
{16}28,,,,75,,7,,78,,7,,76,,7,,
{16}7h[8:1]/1h[8:1],,,,8h[8:1]/2h[8:1],,,,3h[8:1]/5h[8:1],,,,4h[8:1]/6h[8:1],,,,
{16}7h[16:8]/2q4[16:8],,,,,,,,,,,,{24},,,8,7,6,
{16}5,,1,,2,,3,,4,,8,,7,,6,,
{16}5,,,,24,,24,,45,,45,,57,,57,,
{16}73,,73,,26,,26,,15,,15,,84,,
{24}84,15,26,
{16}3b>3[4:15]/7b<7[4:15],,,,,,,,,,,,,,,,
E
