&title=Decade
&artist=Dixie Flatline
&first=0.13
&des=digitalgroove
&lv_5=12+ | 12.8
&inote_5=(127)
{4},,,,
{8}35,4,46,5,25,3,47,6,
{16}E3/B2,,,E7/B7,,,B4/B5/Ch[8:3],,
{8},,7,7,
{8}64,5,53,4,74,6,52,3,
{16}B3/E4,,,E6/B6,,,E1/B8/B1,,
{16},,B1,B2,B3,B4,B5,B6,
{8}8x,71,1,82,3,45,6,45,
{16}E3/B3,,,E7/B6,,,B1/B8/Ch[8:3],,
{8},,5,5,
{8}4x,35,5,46,7,81,2,81,
{16}B5/E6,,,E8/B8,,,E3/B2/B3,,
{16}B8,B1,B2,B3,B4,B5,B6,B7,
{8}1x-5[8:1],,1,,{16}6,4,6,,{8}6<2<6[8:4],4,,3,3,4,3,2-5[8:1],2,7-4-1-5[8:3],,3h[8:3],,,,,
{16}C,,B8/B7/E8,,B2/B3/E3,,,E6/B5,,,E2/B1,,,,
{16}5,4,5,3,6,4,
{8}5-1[8:1],5,3,3,2x>6>2[8:4],,8h[8:1],,7,7,6,6,2/5-8[8:1],3,3,4-1-5-2[8:3],,7h[8:3],,,,,
{16}C,,B1/B2/E2,,B7/B6/E7,,,E4/B4,,,E8/B8,,,,
{8}3-7[8:1]/4-8[8:1],,34,,5-1[8:1]/6-2[8:1],,56,,
{8}7<4[8:1]/1,2,3>1-4[8:2],,35,6,7,,
{8}84,7,63,56,5,74,7,6-1[8:1]/4h[8:1],,3,3,2>5[8:1],8,7,6,,
{8}8-4[8:1]/7-3[8:1],,87,,1-5[8:1]/2-6[8:1],,12,,
{8}4>1[8:1]/7,6,5h[8:1],,6<1[8:1]/2,3,4h[8:1],,
{8}5,26,35,4-1[8:1],4,5-8[8:1],5,2-5[8:1],2,7-4-1-6[8:3],7,
{8}3h[8:3],,,,,
{8}3,2>2>5[8:6],6h[8:3],,,,,7x,8x<8<5[8:6],8x,4h[8:3],,,,,,
{8}3,4,4,8-5[8:1],8,4q4[8:2],4,,6,7,8<5[8:1],,3,2,2,,
{8}6<6<1[8:6],6,2h[8:3],,,,,3,4>4>1[8:6],4,7h[8:3],,,,,6,6,52,52,2-6[8:2],4-8[8:2],,,,,,
{24}2x,3x,4x,8x,7x,6x,1x,2x,3x,7x,6x,5x,2x,3x,4x,
{8}8x-5[8:1]/5x>8[8:1],,8bx/5bx,,
{8}1xV35[8:2]/7h[8:1],{16},,6,,{8}6h[8:1],,7,
{8}7v5[8:1]/3v1[8:1],37,,,B2,B3,B4/8,8,E3/7,7,6V84[8:2]/3h[8:1],,2,2h[8:1],,5h[8:1],1,
{8}6x,6x/5x,5x/4x,4x/3x,72,8-5[8:1]*>5[8:1]/1,,8b,,
{8}7xV51[8:2]/4xh[8:1],,3,3h[8:1],,8-4[8:1],2-6[8:1],8,2,5h[8:3],7x,8x,1x,2x,37,37,
{8}8-5[8:1]/4-1[8:1],,8/4-1-6-3[8:3],,,,,6x,6x/5x,5x/4x,4x/3x,27,1/8-5[8:1]*>5[8:1],,8b,,
{8}5xV71[8:2]/3h[8:1],{16},,2,,{8}2h[8:1],,3,
{8}3v1[8:1]/7v5[8:1],73,,,B6,B7,B8/4,4,E7/3,3,2V48[8:2]/7h[8:1],,6,6h[8:1],,1h[8:1],5,
{8}6x,6x/5x,5x/4x,4x/3x,72,8-5[8:1]*>5[8:1]/1,,8b,,
{8}3xV15[8:2]/6xh[8:1],,7,7h[8:1],,8,15,1<4[8:4]/5h[8:1],,4,3,2,2,1,2x/4x,3x/4x,4x/5x,5x/6xh[8:1],3,
{8}7v1[8:1],3xv5[8:1],7,3,{8}6x,6x/5x,5x/4x,4x/3x,72,8-5[8:1]*>5[8:1]/1,,8b,,
{16}7h[8:1],,5,6,3h[8:1],,5,4,{8}7,75,64,53,2>6[8:2],,6<2[8:2],,8h[8:1],,5b,,
{16}2h[8:1],,7,4,6h[8:1],,2,5,{8}3,35,46,57,
{8}8<4[8:2],,4>6[8:3],3,2h[8:1],,4b,,
{16}6h[8:1],,4,5,2h[8:1],,7,3,{8}6,64,53,42,1>5[8:2],,5<1[8:2],,7h[8:1],,6b,,
{16}8h[8:1],,4,7,2h[8:1],,6,3,{8}5,54,36,27,
{8}7<3[8:2],,3>5[8:3],2,1h[8:1],,4b,,
{16}5h[8:1]/B3/E3,,2,6,3h[8:1],,7,4,{32}B8,B7,B6,B5,{8}1-5[8:1],7,7,{8}8V64[8:2],,4V28[8:2],,2h[8:1],,3b,,
{16}2h[8:1]/E7/B7,,6,4,5h[8:1],,3,8,{32}B1,B2,B3,B4,{8}8^7-4[8:1],2,2,1V35[8:2],,5V71-3[8:3],6,7h[8:1],,5b,,
{16}6h[8:1]/B4/E4,,3,7,4h[8:1],,8,2,{32}B8,B7,B6,B5,{8}2-6[8:1],8,8,{8}1V75[8:2],,5V31[8:2],,3h[8:1],,4b,,
{16}3h[8:1]/E6/B6,,7,2,6h[8:1],,1,5,{32}B1,B2,B3,B4,{8}6-2[8:1],3,3,4V26[8:2],,6,7,8-5[8:1]*>5[8:1],,8b,,
{16}6xh[8:6]/B3,,,B6,,,E2/B1/B2,,,B3,E3,B2,E2,,1xh[8:7],,
{16}B3/E4,,,B6/B7,,,E1,,,B7,E7,B6,E6,,5x,,
{16}B6/B5/E6/B2/B1/E2,,,E8/E4/B3/B4/B7/B8,,,Ch[8:4],,,E4,B4,B5,E6,,4x,4bxh[8:8],
E
