&title=1001 -ESCAPE-
&artist=SOUND HOLIC; 高桥菜菜
&first=0.019
&des=City maiEscape
&lv_5=12+
&lv_6=13+
&inote_1=4,6,4,5,3,5,4,6,3,5,3,6,4h[4:1],,7,,
6,4,6,3,5,3,6,4,5,3,5,4,6h[4:1],,3,,
4,6,3,5,3,6,4,6,3,5,3,6,
&inote_5=(147){1},
{1},,
{8}2h[16:3]/5h[16:3],,,7h[16:3]/4h[16:3],,,18,36,
{16}12,,,78,,,5p4[4:1]/4,,{2},
{16}3,4,2h[8:1],,4,3h[8:1],,5,4h[8:1],,6,5h[8:1],,7,6h[8:1],,
8-4[8:1],,,5,,,1-3[12:1],,,4,,,8,,,,
4,5,3h[8:1],,5,4h[8:1],,6,5h[8:1],,7,6h[8:1],,8,7h[8:1],,
1-7[12:1],,,6,,,2-6[8:1],,,5,,,8,,4,,
6,5,7h[8:1],,5,6h[8:1],,4,5h[8:1],,3,4h[8:1],,2,3h[8:1],,
1-5[8:1],,,4,,,8-6[12:1],,,5,,,1,,,,
5,4,6h[8:1],,4,5h[8:1],,3,4h[8:1],,2,3h[8:1],,1,2h[8:1],,
8-2[12:1],,,3,,,7-3[8:1],,,4,,,1,,5,,
24,,,17,,,6/4-8[8:1],,,,3,,3,,,,
75,,,28,,,3/5-1[8:1],,,,6,,6,,,,
24,,,78,,,6/4q8[8:1],,,,2,,2,,,,
75,,,21,,,3h[16:3]/5,,,2,1,8,7,6,5b,,
31,,,64,,,7/1-5[8:1],,,,2,,2,,,,
68,,,35,,,2/8-4[8:1],,,,7,,7,,,,
31,,,65,,,7/1p5[8:1],,,,3,,3,,,,
2-6[8:1],,,,1-5[8:1],,,,8-4[8:1],,,,7,,,,
2-5[8:1],,,1,,,8-4[8:1],,,3,,,2,,15,,
7-4[8:1],,,8,,,1-5[8:1],,,6,,,7,,48,,
2-6[8:1],,,12,,,8-4[8:1],,,3,,,2,,15,,
7-3[8:1],,,8b/7,,,1-5[8:1],,,6b,,,7b,,8/4b,,
{12}13,,76,,28,,56,,17,,45,,86,,34,,57,,
{16}2h[4:1]/3,,,,7,,7h[16:5],,
8,,,1-6[8:1],,,7,,,8-4[8:1],,,3,,3h[16:5],,
5,,,6-1[8:1],,,3,,,4-8[16:1],,,7,,,,
{12}86,,23,,71,,43,,82,,54,,13,,65,,42,,
{16}7h[4:1]/6,,,,1qq5[16:5],,,,
{1}4,
{12}8,7,5,4,2,1,
{4}8-4[8:1],5,
{16}7h[8:1],,
1-4[8:1],8,,,7,,8,,
1-6[8:1],2,,,3,,2,,
1-4[8:1],8,,,7,,,,
8b/5b,,,6b/4b,,,
2h[8:1],,
8-5[8:1],1,,,2,,1,,
8-3[8:1],7,,,6,,7,,
8-5[8:1],1,,,2,,
{32}1b,,,,4b,,3b,,,,,,6b,,,,
{16}7h[8:1],,
1-6[8:1],8,,,7,,8,,
1-4[8:1],2,,,3,,2,,
1-6[8:1],8,,,7,,
8b-4[8:1],,5b-1[8:1],,8b,,5b,,
6h[8:1],,
8>3[8:1],8,,,7,,8,,
1<6[8:1],1,,,2,,1,,
8q4[8:1],8,,,7,,
1p5[8:1],,2,,3,,,,
4,6,4,5,3,5,4,6,3,5,3,6,4h[4:1],,7,,
8,5,8,4,7,4,8,5,7,4,7,8,3h[4:1],,6,,
5,3,5,6,4,6,5,3,6,4,6,3,5-8[8:1],,4,,5-2[8:1],,,,,,,,4w8[8:1],,,,,,,,
{24}2,3,4,,15,2,3,,,{16}4h[16:3],,,6h[16:3],,,8h[8:1],,
{24}7,6,5,,84,7,6,,,{16}5h[16:3],,,3h[16:3],,,1h[8:1],,
{24}8,7,6,,15,2,3,,,{16}4h[16:3],,,6h[16:3],,,8h[8:1],,
{24}1,2,3,,84,7,6,,,{16}5h[16:3],,,3h[16:3],,,4,,
25,,
{32}1,8,7,6,5,4,3,2,1,8,7,6,5,4,3,2,
{16}1pp8[4:1]/5pp4[4:1],,,,,,,,,,
1,5,2,6,3,7,4,8,3,1,2,8,3,,
{24}7,1,7h[6:1],,,,3,8,3h[6:1],,,,6,2,6h[6:1],,,,4,7,4h[6:1],,,,
{16}8-6[12:1],,,5,,,1-5[8:1],,,4,,,7,,26,,
4-2[12:1],,,1,,,5-1[8:1],,,8,,,3,,62,,
{1},,
{1}8h[1:1],
{2}5<3[2:1],{4},{8},,
{4}4h[1:1],5,6,7,8h[4:3],3,2,1,
{16}7-4[16:1]/8-4[16:1],,,78,,,,,2-5[16:1]/1-5[16:1],,,21,,,,,
6-1[16:1]/3-8[16:1],,,36,,,,,,,,,,,,,
{16}2h[8:1]/1,,
8-5[8:1],1,8,,2,,1,,
8-3[8:1],7,8,,6,,7,,
8-5[8:1],1,8,,2,,,,
{32}1b/4b,,,,,,3b/5b,,,,,,
{16}7h[8:1]/8,,
1-4[8:1],8,1,,7,,8,,
1-6[8:1],2,1,,3,,2,,
1-4[8:1],8,1,,7,,
{32}8b,,,,6b,,5b,,,,,,3b,,,,
{16}2h[8:1]/1,,
8-3[8:1],1,8,,2,,1,,
8-5[8:1],7,8,,6,,7,,
8-3[8:1],1,8,,2,,
1b-5[8:1],,4b-8[8:1],,1b,,4b,,
3h[8:1],,
1<5[8:1],1,,,2,,1,,
8>4[8:1],8,,,7,,8,,
1p5[8:1],1,,,2,,
8q4[8:1],,7,,6,,,,
5,3,5,4,6,4,5,3,6,4,6,3,5h[4:1],,2,,
1,4,1,5,2,5,1,4,2,5,2,1,6h[4:1],,3,,
4,6,4,5,3,5,4,6,3,5,3,6,4-1[8:1],,5,,4-7[8:1],,,,,,,,
5>5[2:1]*<5[2:1],,,,,,,,,,,,,,,,,,,,,,,,
4b/5b,,,7b/8b,,,1b/2b,,,,8b-5[16:1]/1b-4[16:1],,,1b/8b,,,,,,,,,E,
&inote_6=(147){1},
{1},,
{16}15,,,24,,,37,,,46,,,18,,25,,
{32}78,1,2,,,,14,2,3,,,,28,3,4h[32:10],,
{32},,,,,,,,7,6,5,4,,,,,
{16}3,2,3,4,2,1,2,3,1,8,1,2,8,7,8,,
35,,2,1,,3,1,,2,8,,1,8,,24,,
1,7,1,3,2,8,2,4,3,1,3,5,4,6,4,,
{32}38,1,2,,,,12,8,7,,,,16,8,7,,,,78,1,2,,,,5h[8:1],,,,3,,,,
{16}6,7,6,5,7,8,7,6,8,1,8,7,1,2,1,,
64,,7,8,,6,8,,7,1,,8,1,,75,,
8,2,8,6,7,1,7,5,6,8,6,4,5,3,5,,
{32}61,8,7,,,,87,1,2,,,,83,1,2,,,,21,8,7,,,,4h[8:1],,,,6,,,,
{16}1>4[8:1],,,4>1[8:1],,,2,,,,4,,5,,6,,
7>2[8:1],,,2<7[8:1],,,8,,,,2,,3,,4,,
5<8[8:1],,,8<5[8:1],,,6,,,,8,,1,,2,,
7/5h[16:3],,,4h[16:3],,,2,,,15,26,37,48,15,2b/6b,,
4/8>3[8:1],,,3>8[8:1],,,1,,,,3,,4,,5,,
6<1[8:1]/2,,,1<6[8:1],,,7,,,,1,,2,,3,,
4<7[8:1]/8,,,7<4[8:1],,,5,,,,7,,8,,1,,
2,4,2,1,2,6,2,3,2,8,2,5,2,2,2,7,
{32}3h[16:1]/8,1,2h[16:2],,,,4,,,,,,
7/4h[16:1],6,5h[16:2],,,,3,,,,,,6/8,1,,,2/4,3,,,
{32}4h[16:1]/7,6,5h[16:2],,,,3,,,,,,
8/3h[16:1],1,2h[16:2],,,,4,,,,,,1/7,6,,,5/3,4,,,
{32}6h[16:1]/1,8,7h[16:2],,,,5,,,,,,
2/5h[16:1],3,4h[16:2],,,,6,,,,,,3/1,8,,,7/5,6,,,
{32}5h[16:1]/2b,3,4h[16:2],,,,6b,,,,,,
1b/6h[16:1],8,7h[16:2],,,,5b,,,,,,8b/2,3,,,4/6b,5,,,
{12}7-4[8:1],,4,,3-8[8:1],,8,,6-3[8:1],,3,,2-7[8:1],,7,,5-2[8:1],,
{16}2-5[8:1]*-7[8:1],,,,,,,,
{16}85,1,2,3,14,,7<4[8:1],,,86,,,2,3,2,,
14,8,7,6,85,,2>5[8:1],,,13,,,7,6,7,,
{12}2-5[8:1],,5,,6-1[8:1],,1,,3-6[8:1],,6,,7-2[8:1],,2,,4-7[8:1],,
{16}7-4[8:1]*-2[8:1],,,,,,,,
{1},
{12}15,2,3,48,7,6,
{4}5w1[8:1],5,
{16}24,,
6,8,7h[8:1],,5,,1,3,
1,7,1,,48,,25,,
4,3,5,,1,7,8,,
1b/6b,2,5,3b/4b,,,
{16}82,,
4,6,5h[8:1],,3,,7,1,
7,5,7,,26,,83,,
2,1,3,,7,5,
{32}6h[8:1],,,,2b,3,4b,,,,6,5,4b,,,,
{16}68,,
2,4,3h[8:1],,1,,5,7,
5,3,5,,84,,61,,
8,7,1,,5,3,1b/8b,,
5b/6b,,2b/3b,,7b/8b,,
{32}6h[8:1],,,,2,3,4,5,7b,,,,
3h[8:1],,,,4h[8:1],,,,
8,7,6,5,1b,,,,
6h[8:1],,,,7h[8:1],,,,
3,4,5,6,8b,,,,
4,,,,
1-6[8:1],,,,
5-2[8:1],,,,
1,,,,
,,,,
{16}7,8,1,2,8,7,6,5,1,2,3,4,6h[8:1],,8,,
3,5,6,8,1,3,4,6,7,1,2,4,5h[8:1],,7,,
5,8,6,2,7,1,5,8,7,2,7,8,4h[8:1],,6,,3-7[8:1]/5,,,,,,,,5h[4:1],,,,
{32}2,3,4,5,,,,,
{24}6,5,4/3h[6:1],,2,1,8,,,{16}1-5[8:1]/7,,,13,,,1,,
{24}7,6,5/3h[6:1],,1,8,7,,,{16}6-2[8:1]/4,,,68,,,6,,
{24}3,4,5/6h[6:1],,7,8,1,,,{16}8-4[8:1]/2,,,86,,,8,,
{24}2,3,4/6h[6:1],,8,1,2,,,{16}3-7[8:1]/5,,,31,,,3,,
48,,
{24}2,1,2,1,2,1,2,1,2,3,4,5,1,2,3,4,
8,1,2,3,7,8,1,2,3,,,
{16}6,1,7,2,8,3,2,1,4,5,8,7,2,,
{24}6<1[8:1],1,8,,,,2,3,4,,,,4>1[8:1],5,2,,,,8,7,6,,,,
{32}48,1,2,,,,12,8,7,,,,15,8,7,,,,78,1,2,,,,56,,,,12,,,,
{32}51,8,7,,,,87,1,2,,,,84,1,2,,,,21,8,7,,,,4p1[1:1]/3,,,,8p5[1:1]/7,,,,
{1},,
{1}2>6[8:3],
{2}7>3[8:3],{4},{8},,
{4}4,6,1,2,7,5,2,1,
{16}7p3[8:1],,,7q3[8:1],,,,,4q8[8:1],,,4p8[8:1],,,,,
1p5[8:1],,,1q5[8:1],,,,,,,,,{32}81,27,36,45,,,,,
{16}75,,
3,1,2h[8:1],,4,,8,6,
8,2,8,,51,,74,,
5,6,4,,8,2,1,,
8b/3b,7,4,6b/5b,,,
{16}17,,
5,3,4h[8:1],,6,,2,8,
2,4,2,,73,,16,,
7,8,6,,2,4,
{32}3h[8:1],,,,7b,6,5b,,,,3,4,5b,,,,
{16}31,,
7,5,6h[8:1],,8,,4,2,
4,6,4,,15,,38,,
1,2,8,,4,6,8b/1b,,
4b/3b,,7b/6b,,2b/1b,,
{32}3h[8:1],,,,7,6,5,4,2b,,,,
6h[8:1],,,,5h[8:1],,,,
1,2,3,4,8b,,,,
3h[8:1],,,,2h[8:1],,,,
6,5,4,3,1b,,,,
5,,,,
8-3[8:1],,,,
4-7[8:1],,,,
8,,,,
,,,,
{16}2,1,8,7,1,2,3,4,8,7,6,5,3h[8:1],,1,,
6,4,3,1,8,6,5,3,2,8,7,5,4h[8:1],,2,,
4,1,3,7,2,8,4,1,2,7,2,1,5h[8:1],,3,,6-2[8:1]/4,,,,,,,,
5w1[4:1],,,,,,,,,,,,,,,,,,,,,,,,
{32}3b/1b,8,7,,,,8b/4b,7,6,,,,7b/2b,6,5,,,,,,
8b-4[8:1],,,,,,
4b,,,,,,,,,,,,,,,,,,E,
