&title=ハイテックトキオ
&artist= lapix ∞ BEMANI Sound Team "Sota Fujimori"
&first=-0.1
&des=flawi
&lv_5=14
&des_5=flawi
&inote_5=
(165){4},{8},,,,8x/Cf,7,
{4}6h[4:1],{8}7,8,1,2,{4}3<8[8:3],
{8},,,5,6-2[8:1],2,{4}3z7[4:1],
{8}3,,,6,5,1,{4}2h[8:5],
{8}E1,E8,E7,5x-1[8:1],,5,{4}B2f/E3/B3,
4/3xh[4:1],B6f/B7/E7,5/6xh[4:1],E1f/B8/B1,
8/2xh[4:1],E5f/B5/B4,4/6xh[4:1],{8}4,4,
5,5,4/7,3,2/5,6,{32}A4/7x>5b[4:1],D4,A3,D3,A2,D2,A1,D1,
,,,,,,,,{4}1xh[8:1],7bx/3bx,6x/4xh[4:1],
{16}6,5,7,4,8-6[8:1],,,1,{8}8,2,3-1[8:1],4,
{16}3/5,,,7h[16:3],,,{8}8,1,{16}2,5,{4}3h[8:1],
{16}5/2h[16:3],5,,7V15[4:1],,,{8}5,4,3,{16}2>5[8:1],,,7,
{8}2,8h[4:1],{16},7,6,5,4,3,2,1,{4}8x/6x,
{16}7-2[8:1],8,6,1,7,,,3,{8}3,2/5,{16}1-5[8:1],,,6,
{8}1,7h[16:3],{16},4,{8}7,6x/3x,2,{4}1x/7<4[8:1],
{16}4,3,2,1,{8}8>3[8:1],{16}6,6,,,{8}5<8[8:1],4,5,
,1/5,8-5[8:1]/4-1[8:1],4/8,,,2b/6b,{16}7,5,
{8}7,{16}4,6,3,4,2,5,8,7,1,6,3,5,3,5,
{8}2h[8:1],{16}4,2,5,3,6,4,7,5,8,2,4,3,5,4,
6,1,7,8,6,3,4,1,7,5,8,2,7<4[16:1],3,,7x/8x,
,,2>5[16:1],6,,2x/1x,,,8,6,7,5,{8}6xh[8:1],{16}4,5,
3,4,2,5,1,6,2,7,3,8,4,1,3,8,2,7,
1,6,4,5,3,4,2,6,8,7,1,5,3,4,2,6,
5,7,2,1,4,7,8,5,3,6,2,7,1x,8x/1x,,7b/3b,
,,5x,4x/5x,,2b/6b,,,3bs7[8:1]/4bz8[8:1],5x/2x,{8}6x/1x,{4}3b/4b,
{2}B7/E7/B6,B3/E4/B4,
B1/E2/B2,{4}B8/E8/B7,4/1h[16:7],
{16}5,5,,6,,,{8}8,{4}8h[4:1],5h[4:1],
{16}7,5,,6h[16:5],,,{8}1,{4}1x,{16}8x/4x,,,7,
{8}7<5[12:1],2h[4:1],{16},,,1,{8}1,5,{16}3,4,2,4,
{8}3V51[4:1],6,{16},1,8,7,{8}6h[8:1],2,5x/3x,{16}3,4-8[8:1],
3,5,,7,,,{8}2h[8:1],{16}1,8,7,6,{8}5/3>8[8:1],2,
3/6-1[8:1],7,6/4w8b[8:1],3,{4}4bx,{8}2/6,{16}3,5,
{8}3,{16}3,1,{8}3,{16}3,7,{8}3,3/5,{16}4,7,5,6,
2,8h[16:3],,1,{8}1-5[8:1],7-3[8:1],1,7,2,{16}4,1,
{8}4,{16}4,3,{8}4,{16}4,1,{8}4,2/5,{16}1,4,2,3,
1,6,{8}8h[8:1],{16}5<8[8:1]*>2[8:1],5,{8}5,{4}5x,{8}1-5[8:1],6,
{16}8/1-3[8:1],8,,6,1-6[8:1],7,{8}7,{16}1,5,{8}5,8-4[8:1],3,
{16}1/8-6[8:1],1,,3,8-3[8:1],2,{8}2,{16}8,4,{8}4,{16}5,6,4,7,
3,8,2,1,3,4,2,5,1,6,8,7,{4}6x-3-8<5b[8:3]`1x-4-7>2[8:3],
,,Cf,{8}5x/2x,3,
4,{16}6x,5h[16:3],,,{8}7xh[8:1],{4}6,{8}7x/4x,6,
5x/3x,{16}3x,4h[16:3],,,{8}2xh[8:1],3,{16}5,4,{4}5xh[4:1],
{8}2,3xh[4:1],,4xh[4:1],{16},,1,4,{8}1xh[8:1],5,
7x/8x,{16}6,1,{8}6h[8:1],5xh[8:1],{4}4x,{8}7x/1x,6,
4h[8:1],{16}5x,4x,{8}5h[4:1],3x,{4}2x,{8}8x/3x,7,
6/1,{16}3x,4x,{8}3h[8:1],5xh[8:1],1x,{16}2,4,{4}2x>5[8:1],
{8}6,7xp3[8:1],,3x,2,1,{4}5xh[4:1]/Cf,
{16},,5,4,6,3,7,2,{32}8x,D8,A7,D7,A6,D6,A5,D5,{4}1bh[4:7]/A4f,
4,4,4,4,
4,4,4,4/7bh[4:7],
5,5,5,5,
5,{8}5,3,{4}1bx,E8/B7/B6/E6/C/E2/B2/B3/E4,
E1/C/E5,E8/B8/B1/E2/C/E5,E8/E6/B8/B1/C/B5/B4/B7/B6,B1/B8/B7/B6/B5/B4,
E8/B7/B6/E6/C/E2/B2/B3/E4,E8/B8/B1/E2/C/E5,E1/E8/E6/E7/E5/E4/E3/E2,E8/B7/B6/E6/E2/C/E4,
C/E1/E5,E1f/E8/E7/E6/E5/E3/E4/E2,,5xh[2:1],
{32},,,,,,,,1x,2x,3x,4x,5x,6x,7x,8x,{4}1bx/Cf,{16}6-1[8:1],5,7,4,
{8}6,{16}2,2,8,3,7,4,6,1,5,2,4,4,3,5,
1,7,4,6,2x,3,4,5,8x,7,6,5,2-6[8:1],4,1,5,
{8}2,{16}8,8,5,7,4,6,2,8,3,5,1-5[8:1],7,2,8,
1>4[8:1],7,7,1,6x,7,8,1,5x,4,3,2,7<4[8:1],8,6,1,
{8}7,{16}2,2,3,1,5,4,6,5,7,4,8,3,4,2,
1,5,7,6,8x,5,5,7,4x,3,2,1,5<8[8:1],2,7,4,
{8}5,{16}3,3,1,2,5,4,7,5,6-8[8:1],6,{24}2,3,4,6b-1b[8:1],,,2,
3,4,6b,{96},,,,,,,,{32}5b,4,3,2,1,8,7,6,{4}5b/Cf,{16}2b-6b[8:1],4,3,5,
{8}2b,{16}7,7,1,8,4,6,2,5,3,7,4x,5,5,5,
2x,5,5,5,8x,1,2,3,{32}4/6x,7,8,1,2,3,4,5,{8}6b-1b[8:1],{16}7,5,
{8}6b,{16}2,2,4,3,7,8,6,5,1,2,4x,3,3,3,
1x,3,3,3,5x,6,7,8,{32}1/4x,3,2,1,8,7,6,5,{8}8b/4x,{16}5,7,
{8}5,6/4,{16}5-1[8:1],5,3,3,,,,,{8}2b/6b,{16}3,5,
{8}3,2/4,{16}3>8[8:1],3,5,6,,,,,7b,7,2,2,
6,6,3,3,5w1b[8:1],5,4,4,,,,,{4}4b<4<5<6<7>8>1>2>3<4b[2:1],
{32},,,,,,,,E5,E6,E7,E8,E1,E2,E3,E4,{4}Cf/E5,{16}6b,5,8,1,
4,3,6,2,8,5,7,3,4,1,6,5,8,2,4,1,
7,6,8,2,5,4,7,8,6,2,1,3,7,5,6,8,
4,1,7,2,6,5,8,3,7,1,4,2,6,8,5,4,
7,3,6,8,5h,6,7,8,1/5,4,3,2,{8}7x/1x-5[8:1],{16}8,7,
{8}1,6x,2x/4x-8[8:1],{16}3,2,{8}4,1x,1x/7x<4b[8:1],{16}6,1,
{8}7,1x,8x/2x>5b[8:1],{16}3,8,{8}2,8x,{16}7x,5,7,5,
8x,2,8,2,{32}7b,6,5,4,3,2,1,8,7b/3b,4,5,6,7,8,1,2,{4}7bx-4b[8:1]/3bx-8b[8:1],
{8},,1xw5b[8:1],2/8,{4}1b,Cf/B6/B3/B5/B4,
E
