&title=ミニ偏
&artist=原口沙輔/重音テト
&first=0
&des=Toriel
&lv_5=13
&inote_1=3bv5[8:1],,2,,7v1[8:1],,8,,4>2[8:1],,3,,1v6[8:1],,8,,3v4[8:1],,2,,8v2[8:1],,7,,
5/8v6[8:1],,5,,5x-2[8:1],,5x,,5x,
&inote_5=(127){8},,,,,,
{16},
3h[1:1],,,,E2,,,,E8,,,,E2,,,,1bv6[8:1],,,,
4>1[8:1],,,,4v7[8:1],5,,4,,,8v3[8:1],,,,8,,7h[4:1],,,,4,4,,6/5h[16:5],,,,,
6bv1[8:1],,,,5>2[16:3],,,,5,8,,1h[16:15],,,2,,2b,,,,6b,,,,2bv3[8:1],,,,E1/A8/A1,,,,
5<8[8:1],,,,5/4-1-6[4:1],,,,6-3[8:1],,,,,,
8h[8:7],,,,3,,4,,4,,5-1[8:1],,6x,,5-8[8:1],,6x,,2p4[16:3]/5,,,,8h[4:1]/2,,,,,,8-2-6>4[8:3],,,,85,,,,4,,3,,2,,1<7[8:1]/4<6[8:1],,85,,,,,,
8b-5[8:1]/E5/B4/E4,,,,4-7[8:1],,3,,2,,1v3[8:1],,,,5-1[8:1],,,,3,,4,,5,,5w1[8:1],,,,A5,,,,
7-4[8:1]/3v8[8:1],,62,,73,,,,2-5[8:1]/6v1[8:1],,37,,26,,,,
8v5[8:1]/4,,7/5-7[8:1],,84,,3,,1z5[8:1]*-4[8:1],,,,,,,,
2-4[8:1],,E8,,2,,,,3-5[8:1],,B8/E8,,3,,,,4-6[8:1],,B8/E1/B1,,4,,,,
5-7[8:1],,B1/A1/E2/B2,,5,,,,6-8[8:1],,E2/B2/A2/E3/D2,,6,,,,7-2[8:1],,A4/A3/D4/B4/E4/B3,,7,,,,
1xbh[4:3]/4x,,,,6b,,,,2b,,,,8bv3[8:1],,,,7h[16:11]/8,,,,2,,1,,8v5[8:1],,,,8,,7v5<7[4:1],,,,4,,3-7[8:1],,2,,8/3-5[8:1],,8,,83,,8,,8b-2-6[4:1],,,,5-8-3[4:1],,4,,4x,,4xv1[8:1]*-8[8:1],,,,4,,,,72,,73,,74,,7v2[8:1]/5v2[8:1],,84,,,,,,
7b/5b-2>5[4:1],,,,5-1[8:1],,6,,7,,8-4[8:1],,,,8/1h[16:13],,,,5,,4,,3,,2-7[8:1],,,,
2/1-4[8:1],,1x,,1bh,,1x-6[8:1],,1x,,1bh,,1x-5[8:1],,1x,,1bh,,8x,,
7/6b,,5b/4,,3/2b,,1b/8,,7xbz3[8:1]/6xb-3[8:1],,,,E7f/A7/A6,,,,
6/1,,7-4[8:1],7,8,,1,,1,,5-8[8:1],2,2-4[8:1],,5,,2-8-3[16:3],,6,,2,,5,,4w8[8:1],,53,,4,,,,
6-1[8:1]/2v5[8:1],,73,,62,,,,3-8[8:1]/7v4[8:1],,26,,3/7pp2[4:3],,,,
E6,,E4,,E5,,E6,,E4,,,,,,,,
3/8,,2-5[8:1],2,1,,8,,8,,4-1[8:1],7,7-5[8:1],,4,,7-1-6[16:3],,3,,7,,4,,5w1[8:1]b,,46,,5,,,,
2v5[8:1]/6v1[8:1],,37,,26,,,,7v4[8:1]/3v8[8:1],,62,,7/3,,,,
1-4[8:1],,2,,7-5[8:1],,6,,2-4[8:1],,3,,6-3[8:1],,,,
6b/4x,,,,4/E2,,,,4,,,,4/E3,,,,4,,,,4/E4,,,,4h[8:3],,,,3-6[8:1],,,,3b/5,,,,
5/E6,,,,5,,,,5/E7,,,,5,,,,5/E8,,,,5z1[8:1]/8-5[8:1],,,,,,,,
6h[4:1]/4x,3x,2x,1x,8x,7x,6x,5x,4x/7x,8x,1x,2x,7x,8x,1x,2x,3x/B7,4x,5x,6x,7x,8x,1x,2h[16:3]x,4x-8[8:1],5x,6x,7x,8x,,,A7/B7/B6/E6/A6/B5,
1x,2x,3x,4x,7x,6x,5x,4x,1x,8x,7x,6x,E8,E7,E6,E5,1x,2x,6x,7x,2x,3x,7x,8xh[16:5],4x,4x,4xb,4xb,4xb,4xb,A8/B8/B7/E7/A7/B6,A2/B2/B3/E4/A3/B4,{48},A7/B7/B6/E6f/A6/B5,,{16},,,1x<7[8:1],,,,7v4[8:1],,6,,5-1[8:1],,5h[2:1],,,,,,1x,,2,,3-6[8:1]/4h[16:3],,,,
3/4-7[8:1],,4x,,4xbh,,4x-1[8:1],,4x,,4bh,,4x-7[8:1],,4x,,4bh,,3x,,2x/1b,,8b/7x,,6x/5b,,4b/3x,,2b-5[8:1]/1bs5[8:1],,,,,,,,
6xh[2:3],,,,E4,,,,,,,,E5,,,,,,,,E4,,,,,,,,Ch[4:1]f/7-4[8:1],,,,7x>2[8:1],,8x,,7x-5[8:1],,,,7x-3[8:1],,8x,,7xpp2[4:3],,,,E6,,E4,,E5,,E6,,E4,,,,,,,,
71,,6v1[8:1],6,5,,6,,5,,4v7[8:1],1,1,,4<6[8:1],,5,,4>2[8:1],,3,,4-7[8:1],,5,,4-1[8:1]b,,3,,4b,,5w1[8:1],,73,,B5,,,,4w8[8:1]b,,62,,B4,,,,
2-6[8:1],,E8,,2v5[8:1],,E1,,2v4[8:1],,E8,,2v3[8:1],,,,A8/E1f/A1/2b,,,,
6/4-7[8:1],,,,4-1[8:1]/2,,,5,4,,4xv7<5[16:3],,2,,4-1[8:1],,3,,4,,5xv2[8:1]*-1[8:1],,6,,,,,,3b-6[8:1]/7b-4[8:1],,28,,73,,,,6-3[8:1]/2-5[8:1],,71,,2qq7[4:3]/6,,,,
3x,,6x,,4x,,6x,,5x,,,,
,,,,6/4v7[8:1],,,,4>2[32:3]/2,,,,4/6-1[8:1],,,4,6,,5>2[8:1],,4,,5<8[8:1],,6,,5>3-1[8:1],,4,,5-8[8:1]b,,7,,5b,,4w8[8:1],,17,,E5/B4/E4,,,,
5w1[8:1]b,,82,,E5/B5/E6,,,,
7-3[8:1],,E2,,7v4[8:1],,E1,,7v5[8:1],,E2,,7v6[8:1],,,,A1/E1f/A8/7b,,,,
5x,,,,,,,,5x,,,,,,,,5x,,,,,,,,5x-1[8:1]*v2[8:1],,,,B5f/E6/E5,,,,4x/8x-6[8:1],,,,
4/8,,,,4x/8x-2[8:1],,,,48,,,,
4/8-6[8:1],,,,4/8-2[8:1],,,,4-8[8:1]*v7[8:1]/8,,,,E5/B4f/E4,,,,
5x/1x-3[8:1],,,,
5/1-7[8:1],,,5,1,,5,,5/1-3[8:1],,5,,5/1-6[8:1],,5,,5<8[8:1]/1,,,,5x/4xh[8:1],,,,
4,3,2,1,8,7,6,5,{24}4x,3x,2x,1x,8x,7x,6x,5x,4x,3x,2x,1x,{48}8xh,7x,6x,5x,4x,3x,2x,1x,8x,7x,6x,5x,4x,3x,2x,1x,8x,
7x,6x,5x,4x,3x,2x,1x,
{16}8xh[4:1],,,,A7/B7/B6/E6f/A6/B5,
E
