&title=スーサイドパレヱド
&artist=ユリイ・カノン / GUMI
&first=0.03
&lv_5=14
&des_5=Lu1LAbY-_-
&inote_5=
(176){4},,,,{8}4x/5x,
3x/6x,,4/5,{16}6,5,{8}7,4/3,5/2,
4x/5x,3x/6x,,5/4,{16}6,5,{8}7,{16}3,4,{8}2,
5x/4x,3x/6x,,5/4,{16}6,5,{8}7,4/3,2/5,
4x/5x,3x/6x,,5h[8:3]/4h[8:3],{2},{8}4/6-1[8:1],
{16}5,4,{8}6,2,{16}8-4[8:1],1,{8}7,8/2,3,
,{16}3-5[16:1],4,{8}2,3/6,{16}7,4,{8}7,8/5,6/4,
5/3-8[8:1],{16}4,5,{8}3,7,{16}1-5[8:1],8,{8}2,1/7,6,
,{16}6-4[16:1],5,{8}7,6/3,{16}2bx/3bx,{8},{16}1bx/8bx,{8},6bx/5bx,
4/6-1[8:1],{16}5,4,{8}6,2,{16}8-4[8:1],1,{8}7,8/2,3,
,{16}3-5[16:1],4,{8}2,3/6,{16}7,4,{8}7,8/5,6/4,
5/3-8[8:1],{16}4,5,{8}3,7,{16}1-5[8:1],8,{8}2,1/7,6,
,{16}6-4[16:1],5,{8}7,6/3,{4}2h[4:1],6h[4:1],
{16}4-2[8:1],{8},{16}5,{8}4b,6,{16}4-1[8:1],{8},{16}5,{8}4b,7,
8-6[8:1],1-5[8:1],8b,1b,8-5[8:1],1-3[8:1],8,1,
{16}4-2[8:1],{8},{16}5,{8}4b,6,{16}4-1[8:1],{8},{16}5,{8}4b,7,
8-4[8:1],{16}1,7,{8}8b,5,4bx<7[8:1]/3bx>8[8:1],5bx/2bx,{4}4bx/3bx,
6h[2:1],4,3h[2:1],5,
7h[2:1],4,2h[2:1],6,
{8}5,{16}5,4,{4}5,{8}3,{16}3,6,{4}3,
{16}1,8,1,8,2,7,2,7,3,6,3,6,4,5,4,5,
{8}3h[4:1],5,6h[4:1],4,2h[4:1],5,7h[8:1],3,
6,4h[8:1],5h[8:1],4,5,3,6,4,
{16}5,4,5,4,6,3,6,3,7,2,7,2,8,1,8,1,
7,7,6,6,5,5,4,4,{8}6,{16}6,3,{4}6,
{16}3,5,3,5,{8}3-1[8:1],5-7[8:1],3,5,,{24}8/1x-5[8:1],7x,6x,
{8}5x,1,8,7,6/5,4,{4}5/3,
{16}6,4,6,4,{8}6-8[8:1],4-2[8:1],6,4,,{24}1/8x-4[8:1],2x,3x,
{8}4x,8,1,2,3/4,5,{4}4/6,
{16}3,5,3,5,{8}3-1[8:1],5-7[8:1],3,5,,{24}8/1x-5-1[4:1],7x,6x,
{8}5x,1/7x-3-7[4:1],,7x,{4},{16}8x-6[8:1],1x,8x,1x,
{8}8b-2[8:1],4x,8b-6[8:1],4x,8b-2[8:1],4x,8,4x,
1b/8b,6b/7b,5b/4b,3b/2b,{4}1b/8b,1-4b[8:1]/8-5b[8:1],
1b/8b,{16}2/3-8[8:1],{8},{16}4,{8}3,7,,7/8-4[8:1],
,8b/1b,2,3,{4}6-8[8:1]/5-1[8:1],5b/6b,
{16}2/3-7[8:1],{8},{16}4,{8}3,5,6,7-3[8:1]/8-4[8:1],,8b/7b,
,2-6[8:1],1-5[8:1],2,1,4,6-4[8:1]/3-7[8:1],5,
{4}3b/6b,{16}2/3-8[8:1],{8},{16}4,{8}3,7,,7/8-4[8:1],
,8b/1b,2,3,{4}6-8[8:1]/5-1[8:1],5b/6b,
{8}8-6[8:1],1-5[8:1],8-4[8:1],1-3[8:1],8-6[8:1],1-5[8:1],8,1,
{16}6,4,6,4,{8},{16}3,5,3,5,{8},{16}8-4[8:1],1,8,1,
{4}8b,{16}2/3-8[8:1],{8},{16}4,{8}3,7,,7/8-4[8:1],
,8b/1b,2,3,{4}6-8[8:1]/5-1[8:1],5b/6b,
{16}2/3-7[8:1],{8},{16}4,{8}3,5,6,7-3[8:1]/8-4[8:1],,8b/7b,
,2-6[8:1],1-5[8:1],2,1,4,6-4[8:1]/3-7[8:1],5,
{4}3b/6b,{16}2/3-8[8:1],{8},{16}4,{8}3,7,,7/8-4[8:1],
,8b/1b,2,3,{4}6-8[8:1]/5-1[8:1],5b/6b,
{8}8-6[8:1],1-5[8:1],8-4[8:1],1-3[8:1],8-6[8:1],1-5[8:1],8,1,
{16}6,4,6,4,{8},{16}3,5,3,5,{8},{16}4,5,4,5,
4-2[8:1],{8},{16}5,{8}4b,6,{16}4-1[8:1],{8},{16}5,{8}4b,7,
8-6[8:1],1-5[8:1],8b,1b,8-5[8:1],1-3[8:1],8,1,
{16}4-2[8:1],{8},{16}5,{8}4b,6,{16}4-1[8:1],{8},{16}5,{8}4b,7,
8-4[8:1],{16}1,7,{8}8b,5,4bx<7[8:1]/3bx>8[8:1],5bx/2bx,{4}4bx/3bx,
{16}1-3[8:1],{8},{16}8,{8}1b,7,{16}1-4[8:1],{8},{16}8,{8}1b,6,
5-7[8:1],4-8[8:1],5b,4b,5-8[8:1],4-2[8:1],5,4,
{16}1-3[8:1],{8},{16}8,{8}1b,7,{16}1-4[8:1],{8},{16}8,{8}1b,6,
5-1[8:1],{16}4,6,{8}5b,8,1bx<6[8:1]/2bx>5[8:1],8bx/3bx,{4}1bx/2bx,
7h[2:1],3,4h[2:1],6,
5h[4:1],{8}3,{16}4,5,{4}3,5/6,
4h[2:1],6,5h[2:1],3,
4h[4:1],{8}6,{16}5,4,{4}6,{8}3/4,5/2,
{4}5h[2:1],3,4h[2:1],6,
5h[4:1],3,{8}3/6,{16}5,4,{4}5,
{16}4,5,3bx,5,4,5,2bx,5,4,5,1bx,5,4,5,8bx,5,
8,5,8,5,1,5,1,5,2,5,2,5,3,4,3,4,
{8}3/5,8/2,5/6,1/7,{16}4,3,{8}2-5[8:1]/1-6[8:1],,2b/1b,
,{16}3,4,{8}2,{16}6,5,{8}7,{16}8,4,7,4,6,4,
{8}3/5,8/2,5/6,1/7,{16}4,3,{8}2-5[8:1]/1-6[8:1],,2b/1b,
,{16}3,4,{8}2,{16}6,5,{8}4/7,2-6[16:1]/1-5[16:1],,1b/2b,
3/4,3/4,{16}6,5,{8}7,1/8,{16}2,7,{8}2,5h[4:1]/4h[8:1],
,{16}1,2,{8}3/4,6/1,7/8,6/1,5/2,4/3,
{16}5,4,5,4,5,3,5,3,5,2,5,2,5,1,5,1,
5,4,8,1,5,4,7,2,{8}8b/1b,6b/7b,5b/4b,3b/2b,
{4}8/1h[4:1],{16}7,2,6,3,{4}4/5,{8}3,1/2,
,6/5,4/7,6,{4}8/4,4/2-4[8:1],
2b/1-5[8:1],1b/8-6[8:1],8b/4-8[8:1],4b/5b,
{16}3,5,3,5,4,6,4,6,3,5,{8}3,6/2,3/5,
4/6,4,5/3,5,2/6,2,5/1,5,
3/7,3,6/2,6,1/5,1,{4}4/2b-4[8:1],
2b/1b-5[8:1],1b/8b-6[8:1],8b/4b-8[8:1],5b/4b,
{16}7,8,7,8,6,1,6,1,{8}2b/5b,1b/6b,{4}2b/5b,
{16}3,5,3,5,{8}3-1[8:1],5-7[8:1],3,5,,{24}8/1x-5[8:1],7x,6x,
{8}5x,1,8,7,6/5,4,{4}5/3,
{16}6,4,6,4,{8}6-8[8:1],4-2[8:1],6,4,,{24}1/8x-4[8:1],2x,3x,
{8}4x,8,1,2,3/4,5,{4}4/6,
{16}3,5,3,5,{8}3-1[8:1],5-7[8:1],3,5,,{24}8/1x-5-1[4:1],7x,6x,
{8}5x,1/7x-3-7[4:1],,7x,{4},{16}8x-6[8:1],1x,8x,1x,
{8}8b-2[8:1],4x,8b-6[8:1],4x,8b-2[8:1],4x,8,4x,
1b/8b,6b/7b,5b/4b,3b/2b,{4}1b/8b,8v5v2[8:5],
{8}8b,{4},,,{8}7b-5>3-1[8:5],
{1},{8}8b-5[8:3]*z4[8:3],
{4},,,{8}8bv5[8:3]/2bv5[8:3],
{2},{16}B7,B2,{8}C,B3/E4,B6/E6,
{4}6/8,2,{8}3/7,4-1[8:1]/6-1[8:1],,4bx/6bx,
,2/8,3,4,{4}5-7[8:1]/3-7[8:1],3bx/5bx,
{8}8-6[8:1],1-5[8:1],8-4[8:1],1-3[8:1],8-6[8:1],1-5[8:1],8,1,
{16}6,4,6,4,{8},{16}3,5,3,5,{8},{4}1-4b[8:1]/8-5b[8:1],
1b/8b,{16}2/3-8[8:1],{8},{16}4,{8}3,7,,7/8-4[8:1],
,8b/1b,2,3,{4}6-8[8:1]/5-1[8:1],5b/6b,
{16}2/3-7[8:1],{8},{16}4,{8}3,5,6,7-3[8:1]/8-4[8:1],,8b/7b,
,2-6[8:1],1-5[8:1],2,1,4,6-4[8:1]/3-7[8:1],5,
{4}3b/6b,{16}2/3-8[8:1],{8},{16}4,{8}3,7,,7/8-4[8:1],
,8b/1b,2,3,{4}6-8[8:1]/5-1[8:1],5b/6b,
{8}8-6[8:1],1-5[8:1],8-4[8:1],1-3[8:1],8-6[8:1],1-5[8:1],8,1,
{16}6,4,6,4,{8},{16}3,5,3,5,{8},{4}4-1b[8:1]/5-8b[8:1],
4b/5b,{16}7/2-5b[8:1],{8},{16}1,{8}2,6,,6/5-1b[8:1],
,5b/4b,{4}3,7-5b[8:1]/8-4b[8:1],8b/7b,
{16}3/2-6b[8:1],{8},{16}1,{8}2,8,7,6-2b[8:1]/5-1b[8:1],,5b/6b,
,3-7b[8:1],4-8b[8:1],3,4,1,2-6b[8:1]/7-1b[8:1],8,
{4}2b/7b,{16}8/2-5b[8:1],{8},{16}1,{8}2,6,,4/5-1b[8:1],
,5b/4b,3,2,{4}8-4b[8:1]/7-5b[8:1],8b/7b,
{8}5-7b[8:1],4-8b[8:1],5-1b[8:1],4-2b[8:1],5-7b[8:1],4-8b[8:1],5,4,
{16}7,1,7,1,{8},{16}2,8,2,8,{8},{16}4-1b[8:1]/5-8b[8:1],6/3,{8}7/2,
{4}4b/5b,{16}7/2-5b[8:1],{8},{16}1,{8}2,6,4,6/5-1b[8:1],
3,5b/4b,3,2,7-5b[8:1]/8-4b[8:1],1,{4}8b/7b,
{16}3/2-6b[8:1],{8},{16}1,{8}2,8,7,6-2b[8:1]/5-1b[8:1],4,5b/6b,
,3-7b[8:1],4-8b[8:1],3,4,1,2-6b[8:1]/7-1b[8:1],8,
{4}2b/7b,{16}8/2-5b[8:1],{8},{16}1,{8}2,6,4,6/5-1b[8:1],
3,5b/4b,3,2,8-4b[8:1]/7-5b[8:1],1,{4}8b/7b,
{16}8,1,8,1,7,2,7,2,6,3,6,3,5,4,5,4,
6,3,6,3,{8},{16}5,4,5,4,{8},{4}7h[8:1]/8-4[8:1],
{8}8/1-5[8:1],2,1/8,7,{16}4,6,4,6,3,5,3,5,
{8}4/6-1[8:1],{16}5,4,{8}6,2,{16}8-4[8:1],1,{8}7,8/2,3,
,{16}3-5[16:1],4,{8}2,3/6,{16}7,4,{8}7,8/5,6/4,
5/3-8[8:1],{16}4,5,{8}3,7,{16}1-5[8:1],8,{8}2,1/7,6,
,{16}6-4[16:1],5,{8}7,6/3,{16}2bx/3bx,{8},{16}1bx/8bx,{8},6bx/5bx,
4/6-1[8:1],{16}5,4,{8}6,2,{16}8-4[8:1],1,{8}7,8/2,3,
,{16}3-5[16:1],4,{8}2,3/6,{16}7,4,{8}7,8/5,6/4,
5/3-8[8:1],{16}4,5,{8}3,7,{16}1-5[8:1],8,{8}2,1/7,6,
,{16}6-4[16:1],5,{8}7,6/3,{4}2h[4:1],6h[4:1],
{16}4-2[8:1],{8},{16}5,{8}4b,6,{16}4-1[8:1],{8},{16}5,{8}4b,7,
8-6[8:1],1-5[8:1],8b,1b,8-5[8:1],1-3[8:1],8,1,
{16}4-2[8:1],{8},{16}5,{8}4b,6,{16}4-1[8:1],{8},{16}5,{8}4b,7,
8-4[8:1],{16}1,7,{8}8b,5,4bx<7[8:1]/3bx>8[8:1],5bx/2bx,{4}4bx/3bx,
{16}1-3[8:1],{8},{16}8,{8}1b,7,{16}1-4[8:1],{8},{16}8,{8}1b,6,
5-7[8:1],4-8[8:1],5b,4b,5-8[8:1],4-2[8:1],5,4,
{16}1-3[8:1],{8},{16}8,{8}1b,7,{16}1-4[8:1],{8},{16}8,{8}1b,6,
5-1[8:1],{16}4,6,{8}5b,8,1bx<6[8:1]/2bx>5[8:1],8bx/3bx,{4}1bx/2bx,
{16}4b,4b,4b,4b,{8},{16}5b,5b,5b,5b,{8},{16}4b,4b,4b,4b,
