&title=煉情ミスティフィリア
&artist=Sakamiya feat.一花
&first=0
&lv_5=13
&des_5=ToKo
&inote_5=
(174){4},{1},,,,,{8},7b/2<5[8:1],
,,,2b/7>4[8:1],
,,,7/8,,2-5[8:1],6-1[8:1],2,
6,,,7<4[8:1]/3>8[8:1],,7/3,,2,
3,4w8[8:3],,,,,,,,7b/3b,
{4}6bv8[8:1]/2bv4[8:1],{16}6b/2b,Cf,,,,,,,,,{8}2-4[8:1],
1-5[8:1],2,{4}1<6[8:1],{8}4,3,
2,1-6[8:1],{4}6-3[8:1],{8},8-5[8:1],{4}5-2[8:1],
{8},1v7[8:1],{4}1-4[8:1],{8},5v3[8:1],{4}5-8[8:1],
{8},2-6[8:1],,2-8[8:1]*-4[8:1],,2w6[8:1],,2,
,4/3,2,1/8,{4}7b-2[8:1]/6b-3[8:1],7b/6b,
{8}4/3,6/5,7,1/8,{4}2b-7[8:1]/3b-6[8:1],2b/3b,
{8},2-4[8:1],1-5[8:1],2,1,8-4[8:1],7-5[8:1],8,
7,B3/B4/E4,{4}E8/B7/B8,{2}B6/E6/B5/B1/E2/B2/Ch[8:3],
{8},5<4[4:7],,5,,4,,4,
,5,,6,,7,,8,
,1<2[4:7],,1,,2,,2,
,1,,8,,7,,6,
,4>5[4:7],,4,,5,,5,
,4,,3,,2,,1,
,8p7[4:3],,8,,7,,6,
,5,,8/4,{16},,2,3,{8}4,{16}8,7,
{8}6,3b/2b-7[8:1],,2,,7/6-3[8:1],,6,
,4/3>8[8:1],,3/4<7[8:1],,4/2-6[8:1],,2<7[8:1]*>5[8:1],
,2,,6-2[8:1]/4-8[8:1],,6/4,,1-4[8:1],
,1-7[8:1],,1-3[8:1],,1-6[8:1],,1/4,
4,7/3<6[8:1],,3,,3/7>2[8:1],,7,
,6/5-1[8:1],,5/7,,3/4-8[8:1],,4/2,
,5<8[8:1]/1>4[8:1],,5/1,,3>8[8:1]/7<4[8:1],,3/7,
,6b/2b,,3/5,8,6/4,1,7-2b[8:1]/3-6b[8:1],
,,,,,8<6[8:1],6>4[8:1],4p6[4:1],
,,,1p5[4:1],,5p1[4:1],,1<5[4:1]*>5[4:1],
,,,,,8q6[4:1],,6q4[4:1],
,4q2[4:1],,,,4-1[8:1],{4}4-7[8:1],
{8},2q6[4:1],,6q2[4:1],,2>6[4:1],,6<2[4:1],
,,,4b-7[8:1]*-6[8:1],,4-1[8:1]*-2[8:1],,4<4[4:5],
,Cf,,,,,,,,,,,,7b/5b,
{16},8b/1b,,,{8}4b/2b,
3V58[2:1]/7V14[2:1],,,,,,,,7b/Cf,
{4}3b/Cf,{2}6b-2b[8:1]/2b-6b[8:1],
{8},8b-4[8:1]/7b-4[8:1],,8/7,,2-5[8:1],7-4[8:1],2,
7,1x-4[8:1],5,1x-6[8:1],7,1x-4[8:1],3,1x<2[2:1],
7,,,,,5-1[8:1],4-2[8:1],5,
4,8x-5[8:1],4,8x-3[8:1],2,8x-5[8:1],6,8x>7[2:1],
2,,,,,4-8[8:1],5-7[8:1],4,
5,2-5[8:1],1,2/8-4[8:1],7,8/1-5[8:1],2,1/7-3[8:1],
6,1-4[8:1]/7-4[8:1],,1>4-8[8:3]/7<4-8[8:3],,,,,,5b/1b,
{4}3b/7b,8b-4[8:1]/4b-8[8:1],{16}8b/4b,Cf,,,,,{8}2-5[8:1]/1-5[8:1],
,2/1,,7-4[8:1],3-8[8:1],7,
3,6>2[4:1],6x,2<6[4:1],2x,6>2[4:1],6x,2<6[4:1],
2x,,,,,2-5[8:1],6-1[8:1],2,
6,3<7[4:1],3x,7>3[4:1],7x,3<7[4:1],3x,7>3[4:1],
7x,,,,,3/5-1b[8:1],6,5/4-2[8:1],
,4/8-4b[8:1],,8/7-5[8:1],,7/1-3b[8:1],,1/8-4[8:1],
,8/2-5[8:1],1,2/7p3[8:1],8,7/1q5[8:1],2,1/6q2[8:1],
7,6,,6b/3<8[8:1],,,,3b/6>1[8:1],
,,,7/4,6,5,4,5/2,
3,4,5,6/1,2,3/7,6,5/4-8[8:1],
,4>4[2:1]*<4[2:1],,4,,,,,,8v5[8:1]/4v1[8:1],
,8/4,,6<1[8:1]/2>5[8:1],,6/2,
,4-2[8:1],4,8-6[8:1],8,1-4[8:1],1,5-8[8:1],
5,1,2,3,4,{16}5,6,7,8,1,2,
3,4,{8}5/8bw4[8:1],,,,1/7-3[8:1],,7/1-5[8:1],
,1/2-6[8:1],,2/8-4[8:1],,8/7-3[8:1],,7/1,
,6b/2b,,1qq3[8:3],{2}5qq7[4:1],
{8},1x-5[8:1],8x-6[8:1],1x-3[8:1],8x-4[8:1],1x-5[8:1],8x-6[8:1],1x>8[8:3],
,,,,,7/5,6,4/2,
3,{24}6,,5x,,7x,,3,,4x,,2x,,7,,8x,,6x,,2,,1x,
,3x,,{8}7/4,7/4,3/6,3/6,{16}4,5,4,5,4,5,
{8}4,7b/3b,{4}5bv7b[8:1]/1bv3b[8:1],{16}5b/1b,Cf,
E
