&title=唐·毒蛇
&artist=Bsh-1
&first=-0.687
&lv_1=1
&des_1=
&inote_1=
(78){4},
E
&lv_2=1
&des_2=
&inote_2=
(78){4},
E
&lv_3=1
&des_3=
&inote_3=
(78){4},
E
&lv_4=1
&des_4=
&inote_4=
(78){4},
E
&lv_5=
&des_5=
&inote_5=
(78){4},
E
&lv_6=1
&des_6=
&inote_6=
(78){4},
E
&lv_7=唐·13+?
&des_7=把我放在唐代肯定比过毒蛇
&inote_7=
(78){4},{16},7s3[16:5],{32},,,,,,,8b,,,,,{16}8b,{32}8b,8b,8b,8b,{16}8b,
{8}1/7,{16}1,{32}1,2,{16}3h[8:1],6,{8}5,3pp8[8:1]/5qq8[8:1],,,A8f,
5/3,{16}5,{32}5,6,{16}7h[8:1],2,{8}1,{16}7pp4[8:1],1qq4[8:1],,,,,,,{8}6,
{16}2/1,{32}8,7,{16}6h[8:1],3,{8}4,6qq1[8:1]/4pp1[8:1],,,A1f,
4/6,{16}4,{32}4,3,{16}2h[8:1],7,{8}8,{16}2qq5[8:1],8pp5[8:1],,,,,,,{1}E6h[8:31]/4>5[8:29],
A6h[8:23],
{16}B6h[8:15],,,E4,{8}E2,E8,{4}E2,{16}E4,E2,,,E7h[8:7],
,,E4,{8}E2,E8,{2}E2,
{8}3h[16:7],{16}2-8<7-5>4[8:1],2,4-7-2b[8:1],4,,,,1,3,{32}4,5,{16}5b,6,{8}3h[16:1],
5h[16:7],{16}8-4>2[8:1],8,2-6<8[8:1],2,,,,1,3,{32}4,5,{16}5b,6,{8}3h[16:1],
8/2,{16}1pp1[8:1],8qq8[8:1],1,8,,,,2,3,{32}4,5,{16}5b,6,{8}2h[16:1],
7/1,{16}7qq5qq3[8:1],8,3qq1qq7[8:1]*qq1qq7[8:1],4,,,,4,5,{32}4,5,{16}5b,6,{8}2h[16:1],
{16}1-7[16:1],1-6[16:1]*-6[16:1],1-4[16:1],1-3[16:1]*-3[16:1],1x,1x,1x,1x,5-1-5[8:1],6,{8}7-3[16:1]*-3[16:1],,A7f,
4h[8:1],{64}5b,6,7,8,1,2,3,4,{8}5h[8:1],{64}4b,3,2,1,8,7,6,5,{8}4h[16:1]/7p1[8:1],{16}5,8,{32}4,3,{16}2,{32},,,,A5f,
A6,{16}A7h[32:5],1h[64:1],3h[64:1],{32}A6f,A7,{16}A8h[32:5],2h[64:1],4h[64:1],{32}A7f,A8,{16}A1h[32:5],2-6-2[8:1],3,{48}B1,Cf,B5,A5,,,,,,,,,,,,,{12}6-8[12:1],
5-1[12:1],4-2[12:1],6b,5b,{16}4b,8bx,1bx,2bx,{64}E1/Cfh[16:1]`D1,D8/E8`A8,D7/E7`A7,E6/D6`A6,E5/D5`A5,E4/D4`A4,E3/D3`A3,E2/D2`A2,{8}D1/E1`A1,
{32}8-6[16:1],2,8,3,8,4,8,5,{16}8,{32}3-5[16:1],4,3-7[16:1],2,{16}3-1[16:1],,,,,{8}8b,8b,
{16}5xqq4-1-4-1-4-1-4-1<8-5[8:5]/4xpp5-8-5-8-5-8-5-8>1-4[8:5],{32}6,7,8,1,2,3,{16}4b/5b,A6f/A3f,B3f/B6f,B7f/B2f,,Cf,B6f/B3f,B7f/B2f,{8}B6f/B3f,A5f/A4f,
{16}6x-8q6[8:1],1,{32}1,2,{16}3,{32},,1x,2x,3x,4x,{16}5x,4qq3b[16:1],1/2,4pp5b[16:1],7/8,{8}4b,4b,
{16}1-7[16:1],8-4[16:1],2-4<5qq3[8:1],5,,,,,7-2[16:1],1q5[16:1],2q5[8:1],5,,,,,A5f,
6,8-6-4b[8:1]/7-5-3[8:1],1,4-2-8[8:1]/3-1-7b[8:1],5,{32},,,,,,,,,,2,3,4,5,6,7,{8}8h[16:1]/A1fh[16:1]/E2h[16:1]/B1h[16:1],
{32}7v6>3b[8:1],6,5,4,3v2<7[8:1]*v2<7[8:1],2,1,8,{4}7,{16},6>3b[16:1],3v1b[16:1],{32}6,7,{4}8,
{16}2/8,4,7/8w4[16:1],3/4w8[16:1],4,8/1,,,{8}D8/D1/A7/A1/A8f/E8/E1,{32}1w5b[16:1],2,3,4,5,6,7,8,{8}1,
{16}7-3[16:1]*-3[16:1],8-5[16:1],5>3v2<8[8:1],3,{32},,,,,,,,,,2<8-4<6[8:1],3,4,5,6<7>8>1>2>3<4<5<6<7>8>1>2>3<4[4:15],7,8,1,{16}2,,,,,,,,,,,,,,,,,,,{1}E3h[1:1]/B3h[1:2]/E4h[16:43],
{16},,,E6,{8}E8,E2,{4}E8,{16}E6,E8,,,,,,E6,
{8}E8,E2,E8,{32},,,,,,,,8b,8b,{16}8b,
{8}3h[16:7],{16}2-8<7-5>4[8:1],2,4-7-2b[8:1],4,,,,1,3,{32}4,5,{16}5b,6,3h[16:1],5,
{8}4h[16:7],{16}1-5<7[8:1],1,7-3>1[8:1],7,,,,8,6,{32}5,4,{16}4b,3,{8}6h[16:1],
3/5,{16}5pp5[8:1],4qq4[8:1],5,4,,,,6,7,{32}8,1,{16}1b,2,{8}6h[16:1],
2/8,{16}2pp4pp6[8:1],1,6pp8pp2[8:1]*pp8pp2[8:1],5,,,,5,4,{32}5,4,{16}4b,3,{8}7h[16:1],
{16}8-2[16:1],8-3[16:1]*-3[16:1],8-5[16:1],8-6[16:1]*-6[16:1],8x,8x,8x,8x,4-8-4[8:1],3,{8}2-6[16:1]*-6[16:1],,A2f,
5h[8:1],{64}4b,3,2,1,8,7,6,5,{8}4h[8:1],{64}5b,6,7,8,1,2,3,4,{8}5h[16:1]/2q8[8:1],{16}4,1,{32}5,6,{16}7,{32},,,,A4f,
A3,{16}A2h[32:5],8h[64:1],6h[64:1],{32}A3f,A2,{16}A1h[32:5],7h[64:1],5h[64:1],{32}A2f,A1,{16}A8h[32:5],7-3-7[8:1],6,{48}B8,Cf,B4,A4,,,,,,,,,,,,,{12}3-1[12:1],
4-8[12:1],5-7[12:1],3b,4b,{16}5b,1bx,8bx,7bx,{64}E5/D5,A5,D6/E6,A6,D7/E7,A7,D8/E8,A8,{32}1,2,3,4,
8b,4,1,4,2,4,3,4,4b,4,5,4,6,4,7,4,8b,5,8,6,8,7,8,8,{8}8bh[8:1],{32}4,3,2,1,
5b,1,4,1,3,1,2,1,1b,1,8,1,7,1,6,1,5b,8,5,7,5,6,5,5,{8}5bh[8:1],{32}7,8,1,2,
7/3pp4[8:1]*-1-4[8:1],4,5,6,7,8,1,2,{4}3b,{32}2v3<4[16:1]/1-4[16:1],8,7,6,5,4,3,2,{8}1,{32}7,5,{16}6,
{32}2,4,{16}3,{32}7,6,{16}7,{32}2,3,{16}2,{32}2/8,3,4,5,6/1w5b[16:3],5,4,3,2/8,3,4,5,{4}6,
{1}B7/B8/B1/B2/B3/B4/D5f,
E
