&title=Stellar:Dream
&artist=Emocosine
&first=0
&des=reflectW vs chen
&lv_5=14+
&inote_5=(250)
{4},,,,
5h[1:1],,,,
3h[1:1],,,,
7h[1:1],,,,
1>7[4:3],,,,
8h[1:1],,,,
4h[1:1],,,,
6h[1:1],,,,
2-6[4:1],,,,
{8}3,5,4,6,,,,,
{8}3,5,4,7,,,,,
{8}3,6,4,7,,,,,
{8}3,6,4,8-4[4:1],,,,,
{8}3,3,5,5,4,4,6,6,
{16}1,2,3,4,5,6,7,8,1/5,4,3,2,1,8,7,6,
{8}5b/2,2,,4b/7,7,,6b/2,2,
,3b/7,7^4[8:1],,{24}4b,3,2,1,,,,,,,,,
{8}
2h[4:1]/8h[4:1],,,,4h[4:1]/6h[4:1],,,,
1/5h[16:6],,,3h[16:6],,,8<1[4:3]*qq1[4:3],,
{16},,,,,,,,,,,,,,,,
,,12,,12,,12,,38,,,,,,,,
{8}7h[4:1]/1h[4:1],,,,5h[4:1]/3h[4:1],,,,
8/4h[16:6],,,6h[16:6],,,1>8[8:5],,
{16},,,,,,,,,,,,,,5>6[8:5],,
,,,,,,,,,,,,,,,,
{8}5h[4:1]/3h[4:1],,,5h[4:1]/3h[4:1],,,5h[4:1]/3h[4:1],,
,5h[4:1]/3h[4:1],,,{16}4,5,6,7,8,1,2,3,
{8}4h[4:1]/6h[4:1],,,4h[4:1]/6h[4:1],,,4h[4:1]/6h[4:1],,
,4h[4:1]/6h[4:1],,,{16}5,4,3,2,1,8,7,6,
{8}3,3,5,5,1,1,7,7,
{16}8,6,8,6,1,5,1,5,2,4,2,4,3,5,3,5,
2,3,4,5,1,2,3,4,8,1,2,3,7,8,1,2,6,7,8,1,2,3,4,5,6,7,8,1,2q6[8:1],,,,
2,,,,8,,8-5[8:1],,,,4-1[8:1],,,,6,,
,,3,,8,,1,,7,,8-3[8:1],,,,6,,
6-1[8:1],,,,2,,2-5[8:1],,,,6-1[8:1],,6,,,,
,,3,,3>5[4:1],,8,,8,,,,,,,,
7h[4:1],,,,5-2[8:1],,6,,5,,,,,,8h[4:1],,
,,1,,1,,7,,7,,3-1[8:1],,5-7[8:1],,3,,
5,,,,8,,8,,,,2-4[8:1],,8-6[8:1],,2,,
8,,,,5w1[4:1],,5,,,,,,,,,,
4-8[8:1],,,,6,,6-1[8:1],,,,2-5[8:1],,,,8,,
,,7,,5,,6,,4,,5,,,,2,,
2,,5,,3,,4,,,,1>8[8:3],,8,,1,,
,,,,,,,,27,,,,27,,,,
4,,5-1[8:1],,4,,5,,2,,,,2,,17,,,,17,,,,36,,,,8,1,8,,,,4,6,4,6,4,6,4,6,3,5,3,5,3,5,3,5,2,4,2,4,2-6[8:1],4,2,4,2b,,,,,,,,
5-8[8:1],,3-6[8:1],,5,,3,,,,1,2,3,4,5,,
4-1[8:1],,7-3[8:1],,4,,7,,,,8,7,6,5,4,,
6,,5,,7,,1h[2:1]/8-4[8:1],,,,,,,,3-7[8:1],,,,,,,,2b,,,,5,6,7,8,1,,
4-1[8:1],,6-3[8:1],,4,,6,,,,8,7,6,5,4,,
5-8[8:1],,2-6[8:1],,5,,2,,,,1,2,3,4,5,,
3,,4,,2,,8h[2:1]/1-5[8:1],,,,,,,,6-2[8:1],,,,,,,,7b,,,,5,6,7,8,1,,
2-4[8:1],,4-8[8:1],,2,,5,,,,4,5,6,7,8,,
7-5[8:1],,5-1[8:1],,7,,4,,,,5,4,3,2,1,,
{8}7b,7b-3[8:1],1b,7b,,1w5[8:1],28,,,
{16},,8,7,6,5,1,2,3,4,{16}6,5,6,,7-5[8:1],,7,,,,1-3[8:1],,1,,,,6,5,7,,2-4[8:1],,2,,,,8-6[8:1],,8,,,,3,4,2,,45,,36,,27,,8b^5[8:1]/1bp5[8:1],,,,1b>8[8:5]/8bq1[8:5],,,,8b/1b,,,,,,,,,,,,,,,,,,8-4[4:28],,,,,,,,1-3[4:1],,,,,,,,,,,,,,,,7-5[4:1],,,,,,,,,,,,,,,,1-3[4:1],,,,,,,,,,,,,,,,7-5[4:1],,,,,,,,,,,,,,,,1-3[4:1],,,,,,,,,,,,,,,,7-5[4:1],,,,,,,,,,,,,,,,1,,,,,,,,,,,,,,,,7,,,,,,,,8<3[1:1],,,,,,,,1,,,,1,,,,,,,,2,,,,2,,,,4,,,,4>7[1:1],,,,,,,,6,,,,6,,,,,,,,5,,,,5,,,,,,,,3/1,,,,,,2/8,,,,,,71,2,3,4,
8,1,2,3,7,8,1,2,6,7,8,1,5,6,7,8,
1,2,3,4,5,6,7,8,1,2,3,4,5,6,7,8,1b/5b,,,,,,
7-5[8:1]/3-1[8:1],,48,,,,,,4/2h[8:2],,,,6,,6/2h[8:2],,,,
8,7,6,5,3,2,1,8,5/7-3[8:1],,,,
{8}4-8[8:1],,1>4[8:1],,7,6,5-1[8:1],3,5,2-6[8:1],8,2,7-4[16:2],7,,,5h[8:2],,1,7-2[8:1]/3-6[8:1],,73,,5,1h[8:4],,
{16}5,4,3,2,8,7,6,5,7-4[8:1]/4,,,,3-8[8:1],,,,,,5-1[8:1],,5,,4,,
3-1[8:1],,,,8,,8-6[8:1],,,,2,,2v5[8:1],,7,,7,,,,4,,4w8[8:1],,,,4,,,,6h[8:2],,,,2,,2/6h[8:2],,,,
4,3,2,1,7,6,5,4,1/3-7[8:1],,,,8-4[8:1],,,,6-2[8:1],,,,6,,5,,4qq4[8:2],,4,,6,,6pp6[8:2],,,,6,,5-1[8:1],,4-8[8:1],,,,,,,,,,72,,5-8[8:1]/4-1[8:1],,,,54,,,,
{8}7-5[8:1],8,7,2-5[8:1],1-6[8:1],2,1,3,3,7,7,1,1,5,5,61,34,,72,54,,83,56,,72,5p8[8:2]/4q1[8:2],,,,,
{16}63,,,,7V58[8:2],,,,8-4[8:1],,1,,,,3-7[8:1],,,,3V14[8:2],,,,4-8[8:1],,5,,,,5,6,7,1,2,3,4-2[8:1],,,,1-5[8:1],,1,,,,6-8[8:1]*-4[8:1],,,,6,,,,,,21,8,7,6,53,,2-5[8:1],,,,8/2V41[8:2],,,,1-5[8:1],,8,,,,6-2[8:1],,,,6V85[8:2],,,,5-1[8:1],,4,,,,4,3,2,8,7,6,53,,2,,8/1-3[8:1],,,,7-5[8:1],,7,,,,4,,4w8[8:1],,,,4,,,,62,,6-3[8:1]/2-7[8:1],,,,62,,,,8v5[8:1],,,,81,,2-4[8:1],,,,6V85[8:2]/2,,,,5-1[8:1],,4,,,,3,,3,,8,7,6,5,3,2,1,6,7,8,1/2-6[8:1],,,,6,,4-8[8:1],,,,8,,,,
{24}71,62,53,
{16}4w8[8:1],,,,,,,,,,,,62,,73,,8h[8:2]/4h[8:2],,,,,,7h[8:2]/3h[8:2],,,,,,6h[8:8]/2,1,8,7,5,4,3,2,1,8,7,5,4,3,2,1,8,,,,73,,7,,,,52,,2,,,,84,,8,,,,73,,7-2[8:1]/3-6[8:1],,,,73,,,,,,,,
{8}7,8,6,2>5[8:1],
{16}5,6,7,,8,,
{8}8,7h[8:1],5h[8:1],6h[8:1],4h[8:1],5h[8:1],3h[8:1],1,1,
2>5[8:1],,52,6<1[8:1],,62,,5bpp4[8:3]/4bqq5[8:3],,,,,,,72,,
{8}2,1,3,7<4[8:1],
{16}4,3,2,,1,,
{8}1,2h[8:1],4h[8:1],3h[8:1],5h[8:1],4h[8:1],6h[8:1],8,8,
7<4[8:1],,47,3>8[8:1],,37,5,,
{16}1,2,3,,7>4[8:2]*V14[4:1],6,5,,,,,,,,,,
{8}2,2,4,4,5,5,7,7,1,6,1,4,7,7,3,3,5,4,6h[8:2],
{16}8,1,2,,6,,4,,
{8}5,3h[8:2],
{16}1,8,7,,64,73,82,,82,,3,,
{8}4,5h[8:2]/7h[8:2],
{16},,,,8h[8:2]/2h[8:2],,,,,,1,2,3,4,5,6,7,8,1,2,3,4,5,6,7,8,
1,2,3,4,5,6,7,8,1,2,3,4,58,7,6,5,4,3,2,1,48,73,62,51,4/8-4[8:1],,,,,,,,,,,,
34,,3,,56,,6,,1b,,,,57,,7,,24,,2,,8b,,,,3/5h[8:1],,1,,4h[8:1]/6,,8,,1b,,,,6/4h[8:1],,8,,5h[8:1]/3,,1,,2b/7b,,,,
35,,35,,47,,47,,1,8,2,7,3,6,4,5,
{32}3b,,,,3b,,,,8,7,6,5,1b,,,,1b,,,,7,6,5,4,2b,,,,2b,,,,
5,6,7,8,4b,,,,4b,,,,6,7,8,1,5b,,,,5b,,,,48,37,26,51,,,,,
{16}2,5,2,5,3,6,3,6,4,7,4,7,5,8,5,8,
{24}5,4,3,2,,,5,6,7,8,1,2,3,4,5,6,27,3,4,5,6,7,8,1,2-5[125#12:1]/6-1[125#12:1],,,,,,,,,,,,6/2qq5[125#24:17],,,,,,,,,,,,,,,,,,,,,,,,,,,,,,,,,,,,,,,,6h[1024:1],,7h[1024:1],,8h[1024:1],,1h[1024:1],,,,,,,,,,,,,,,,,,,,
