&title=StrayedCatz
&wholebpm=303
&artist=削除
&des=SP七级
&first=-0.2
&lv_5=12
&inote_5=
(303){1},,,,,,,,,,,,,
{4},
8h[2:1],,
{8}1h[128:1],8h[128:1],1h[128:1],8h[128:1],1h[4:1],,
8h[4:1],,,,1h[128:1],,
{4}2,2,2,2,2,2,2,2,3,3,3,3,3,3,3,3,4,4,4,4,5,5,5,5,
6,6,7,7,8,1,2,3,
4-2[8:1],1,8-6[8:1],5,3-1[8:1],8,{12}7-5[8:1],,7,{4}4,
2-8[8:1],7,6-4[8:1],3,1-7[8:1],6,{12}5-3[8:1],,5,{4}2,
2>4[8:1],1,2>5[8:1],1,2>4[8:1],1,{12}6,,6,{4}5,
7<5[8:1],8,7<4[8:1],8,7<5[8:1],8,{12}3,,3,{4}4,
5-7[8:1],8,1-3[8:1],4,6-8[8:1],1,{12}2-4[8:1],,2,{4}5,
7-1[8:1],2,3-5[8:1],6,8-2[8:1],3,{12}4-6[8:1],,4,{4}7,
7<5[8:1],8,7<4[8:1],8,7<5[8:1],8,{12}3,,3,{4}4,
2h[4:1],1,2h[4:1],3,32,14,58,67,
{12}8,,7,8,,7,8,,7,8,,7b/8b,,,8b/7b,,,7b,{4}8b-4[8:1],,
5h[6:1],7,4h[6:1],2,8-4[4:1],4-2[4:1]*-8[4:1],,,
{12}1,,2,1,,2,1,,2,1,,2b/1b,,,1b/2b,,,2b,{4}1b-5[8:1],,
4h[6:1],2,5h[6:1],7,1-5[4:1],5-7[4:1]*-1[4:1],,,
{4}3^8[4:1],8^3[4:1]*^5[4:1],,,
6^1[4:1],1^6[4:1]*^4[4:1],,,
{6}5h[6:1],4h[6:1],3h[6:1],{8}2h[4:1],,1<5[2:1],1,
,,2,,3,,4,,
{12}54,,3,,,12,,,1,2,,,18,,7,,,56,,,5,6,,,
{6}4/5h[6:1],3,2,1h[6:1]/8,7,6,54,,3,,2,,
{3}1^4[2:1],8,7,6^1[2:1],5,4,
3^6[2:1],2,1,8^3[2:1],7,6,
5^2[2:1],6,7,8^5[2:1],1,2,
3^8[2:1],4,5,6^3[2:1],7,8,
1/5^8[2:1],2,3,4/8^3[2:1],5,6,
7/3^6[2:1],8,1,{4}25,3,4,5-1[8:1],
{1}5b/6,{4},,,4-8[8:1],
{1}4b/3,{4},,,6,
{2}7b^4[8:1]/8,2b^5[8:1]/1,
7b-4[8:1]/8,2b-5[8:1]/1,
{4}7bv4[8:1],8,2bv5[8:1],1,
7b-3[8:1],8,2b-6[8:1],1,
{2}7h[4:1],8h[4:1],1h[4:1],2h[4:1],
{4}2-5[8:1],8,7-4[8:1],1,
2h[4:1],4h[4:1],6h[4:1],8<3[4:3],,3,2,1>6[4:3],,6,7,8,
8h[2:1],1,2h[2:1],1,
7h[2:1],1,3h[4:1],{12}1,,1,
{4}3h[2:1],1,6h[2:1],1,
4h[4:1],1,{12}5,,5,{4}1,
{4}7-4[8:1],1,2-5[8:1],8,
7h[4:1],5h[4:1],3h[4:1],1>6[4:3],,6,7,8<3[4:3],,3,2,1,
32,4,56,7,18,2,{12}34,,3,{4}4,
{12}5b/6b,,7,,,8,,,8,7,,,4b/3b,,2,,,1,,,1,2,,,
{4}8-4[8:1],3,1-3[8:1],4,8-4[8:1],3,1-3[8:1],4,
{12}7b,,7b-4[8:1],,,7b,,,3,3,,,
{12}6,7,8,1,2,3,{2}4^7[8:1],
{12}1,2,3,7,6,5,3,4,3,4,,,
2,3,4,8,7,6,4,5,4,5,,,
3,2,1,8,7,6,2,1,8,7,6,5,{4}4-8[4:1],8<4[4:1]*>4[4:1],,,
{12}4,3,2,5,6,7,3,2,1,6,7,8,1,8,1,8,1,8,2,7,2,7,,,
2,3,4,7,6,5,1,2,3,8,7,6,3,6,3,6,3,6,4,5,4,5,,,
{12}4b/3b,,4b/3b,,,2b/5b,,,3,4,,,
5b/6b,,5b/6b,,,7b/4b,,,6,5,,,
{4}1b^4[4:1]/8b^5[4:1],,,
{12}5,,3,1b,,,4,,6,8b,,,5,,3,
{1}1b,,,,,,,,
{4}3,3,3,3,3,3,3,3,4,4,4,4,4,4,4,4,
5,5,6,6,7,8,1,2>2[2:3],{1},,
{4}3-8[8:1],7,6-1[8:1],2,
3-8[8:1],7,6-1[8:1]
,2,
3^6[4:1],6V83[4:1],8h[4:1],,
6^3[4:1],3V16[4:1],1h[4:1],,
3h[2:1],8,4h[2:1],8,5h[2:1],8,{12}6,,6,{4}8,
6h[2:1],1,5h[2:1],1,4h[2:1],1,{12}3,,3,{4}1-6[8:1],
1b/2,3,4,5-2[8:1],5b/6,7,8,1-7[8:1],
1b/2,3-1[8:1],4/3b,5-3[8:1],
5b/6,7-5[8:1],8/7b,1-5[1:11],
{1},,,,,,,,,,,,1bw5[8:1],
{4},,,1h[6:1]/2h[6:1],8b/3b,7h[6:1]/8h[6:1],
1b/6b,1h[6:1]/8h[6:1],2b/7b,
{1}4h[4:19]/5h[4:19],
{1},,,,,,,,,,
E
