&title=Chocolate Missile
&artist=アリスシャッハと魔法の楽団
&first=0
&des=Cyanine.
&des_5=Cyanine.
&lv_5=14
&inote_5=(175){4},,,,{1}8-6[8:1],
{2}3-5[8:1],{4}6,7,
{2}7-5[8:1],{4}8,1,
2,3,4,5,
4h[2:1],6,{2}7,
{4}5h[2:1],3,2,5,
6h[2:1],{8},,,,4,5,
{1}6/3h[2:1],
{4}4,4,4/5,5,
5/3,6,4/6,3/5,
7/4h[4:1],5h[4:1],3h[4:1],2,
1/2h[4:1],8,8/7h[4:1],5,
{8}2,4,3,4,{2}2b<7[8:1],
C,{4}6,7,
8h[8:3],1,2h[4:1],3,
6/4,3,3/5h[4:1],2,
Cf/8b<1[4:13],B1,{8}B2,,,E2,
B2,E3,{4}B3,{2}C,
{4}C,B5,{8}B6,,,B8,
E8,B7,{4}E7,{2}C,
{4}5h[2:1],3,{8}2,,,8,
1,7,{4}2,{32}8h[8:1],1h[8:1],,,,,,,,,,,,,,,{4}5h[4:1],
{8}2,4,3,5,4,6,
1,4h[16:1],2,7,5,6h[16:1],3,8,
{4}7b/2b,{8}5,4-8[8:1],,4,{4}5,
2/5-1[8:1],{8}5,3>8[8:1],,3,{4}4,
6/8-4[8:1],{8}8,7<4[8:1],,7,{4}8,
8/2-6[8:1],{8}2,8<5[8:1],,8,{4}2,
1/4-8[8:1],{8}4,3>8[8:1],,3,{4}4,
{8}7/5,6h[32:1],4,5,3,4h[32:1],2,1,
{4}8/3-8[8:1],{8}3,6<1[8:1],,6,{4}4,
2/5,7/4h[8:1],3/6h[8:1],{8}4,{16}6,6,
{4}7b/5b,{8}6,4h[4:1],,7,{4}1h[4:1],
8,{8}3/8,{16}2-5[8:1],1,,1,{8}2,{4}8,
{16}1,7,1,7,2,6,2,6,3,3,4,4,5,5,6,6,
{4}C/7x<5[8:1],5/7-3[8:1],7/1-6[8:1],1/4,
{8}7-3[8:1],7,7/2-5[8:1],2,2/8-4[8:1],8,{4}8>3[8:1],
8b/6,6,{8}6,5,{4}4/7x-3[8:1],
7/1-6[8:1],{8}1,4-8[8:1],,4,{4}1w5[8:1],
1,7/3,{8},5/6,{4}4/7,
{8}4/5,4,4/5,5,3/4,2,6/5,7,
{16}1,8,1,8,1,8,1,8,{32}1,2,3,4,5,6,7,8,1h[32:1],2h[32:1],3h[32:1],4h[32:1],5h[32:1],6h[32:1],7h[32:1],8h[32:1],
{2}1h[32:1]/Ch[32:1],{32}6,,,,,,,,,,,,,,,3,
{4}4h[2:1],{8},,,,E7,C,
{2}4x/E3,{4}4,{8}E3,C,
{2}5x/E7,5,
{4}6,7,8/1,2,
{2}3>6[2:1],5pp4[2:1],
3h[8:3],{4}6,{8}E4,E6,
{1}C,
{4}6pp5[8:3],4,{2}3,
{4}1qq2b[8:3],6,5,{8}5,4,
{4}6<1[4:1],3,2,{8}4,5,
{4}3>8[4:1],6,{2}7,
{4}5pp1[2:1],4,3,2,
{2}2z6[8:3],5-1[8:1],
{1}7qq4[1:1]/3qq4[1:1],
{2},4h[1:2],
{16}6,7,{8}8h[8:11],,,,,,,,,,,,,,,{1}6b/2b-6-3-5>4b[1:1],
{24},,,,,,,,,,,,4x,5x,4x,5x,4x,5x,4x,5x,4x,5x,4x,5x,
{4}3b,{8}6,5-1[8:1],,5/4,{4}2,
1/2,{8}1,8-4[8:1],,8/7,{4}5,
{8}4/3,6/5,7/8,2/1,,2,3-7[8:1],4,
{4}3b/5b,{8}8/6,2,1/8-4[8:1],7,{32}8b,2b,,,,,,,{4}2x>6[2:1],
E7,B8,E2,
2x<6[2:1],E6,E5,E4,
{16}4x,5,6,7,8,1,2,3,{4}6/4,7/1>4[8:1],
1b/8b,{8}5/7,6b/8b-3[8:1],,5/8,{4}6b,
{16}3x,7,4,6,3,5,2,8,1x,7,3,5,2,8,4,6,
2x,1,3,7,8,6,3,5,2x,7,4,5,1,7,4,5,
2,2,4,4,3,3,6,6,5,5,7,7,3-7[8:1],4,2,5,
{4}3b,{8}8/2,{16}3,7,5-1[8:1],6,4,7,{4}5b,
8/7V51[4:1],8,8-4-2[4:1],7,
,6-1-7-4b[2:1],{2}2-5b[4:1],
{8},,8,7/5,,1,{4}4/2<7[8:1],
2/6>3[8:1],{8}6,2qq8[8:1],,2,{4}6-1[8:1],
{8},2-5[8:1],,,6-1[8:1],,,2-5[8:1],
,,{4}6<1[8:1],{8},2-6<4z8[8:11],{1},{4},,,{32}1,
2,3,4,5,6,7,8,{48}1,2,3,4,5,6,7,8,1,2,3,4,
{4}Cf/5b>6[4:13],B8,{8}B7,,,E8,
B7,E7,{4}B6,{2}C,
{4}C,B5,{8}B4,B3,E3,B2,
{4}B1,B8,{2}C,
{4}7h[4:1],4,{8}6h[8:1],{16}5,6,3,4,{8}3,
6h[8:1],5,3h[8:1],4,{2}5/6V85[4:1],
{4}3h[4:1],{8}6h[4:1],4,3h[8:1],5,4,5,
{32}6h[2:1],3h[2:1],{4},,,{16},,,{8}2,
3>8[8:1],4,3,{16}4,5,6,7,{8}8-4[8:1],8,
{16}6,7,8,1,2,3,4,5,{8}7x-5[8:1],4x-8[8:1],7,4,
7,6<1[8:1],5,6,{16}5,4,3,2,{8}1-5[8:1],1,
{16}3,2,1,8,7,6,5,4,{8}2x-4[8:1],5x-1[8:1],2,5,
2,3>8[8:1],4,3,{16}4,5,6,7,{8}8-4[8:1],8,
{16}5,6,7,8,1,2,3,4,{8}7x-4[8:1],2x-6[8:1],7,2,
8x,{16}3,4,{8}2,{16}2,6,5,7,3,4,{8}2,{16}7,8,
{8}6,{16}1,1,7,2,8,1,{24}8x,1x,8x,1x,8x,1x,8x,1x,8x,1x,8x,1x,
{4}7bx,5/7,6,5qq3b[4:1],
,8qq6[4:1],,8pp2b[4:1],
,,,2-6[4:1],
6b-3[4:1],3-5[4:1],{2}5b-1[4:1],
{8}7v4[4:1],,,5,{2}5v2[4:1],
7-4[8:1],5x-2[8:1],
{6}1h[12:1]/7h[12:1],1h[12:1]/7h[12:1],1h[12:1]/7h[12:1],1/7,{12},{4}2/8<5[8:1],
8b/1b,{8}4/2,3b/1b-6[8:1],,4/1,{32}4b-8[16:1],3,2,1,8,7,6,5,
{4}4,{16}6,4,7,1,8,2,6,4,7,1,4,3,
7,8,6,2,1,3,6,5,7,2,5,4,8,2,5,4,
7,7,5,5,6,6,3,3,4,4,2,2,{4}6h[8:1],
8/2-8[16:1],{16}8b/2b,7,{8}6,{32}8-4[16:1],1,2,3,4,5,6,7,{4}8b,
1/2V48[4:1],1,1-5-7[4:1],2,
,1-6-8-3b[2:1],{32},7-3b[32:7],{4},,{16},,,{8}3,
2/4,,6,{4}5/7>2[8:1],
7/3<6[8:1],{8}3,7pp1[8:1],,7,{4}3-8[8:1],
{8},7-4[8:1],,,3-8[8:1],,,7-4[8:1],
,,{4}3-8[8:1],{8},7p3[8:7]*v4[8:7],,,,,,,,,,,6-1[8:1],
,,2-5[8:1],,,{4}6-1[8:1],
{8},2>5b[8:1],,,6<1b[8:1],,,2>5b[8:1],
,,{4}6<1b[8:1],{8},2q4b[8:5]*p8b[8:5],,,,,,,,7,
3,6,
2,5,1,4,{32}1/5,2/6,3/7,4/8,5,6,7,8,{48}1,2,3,4,5,6,7,8,1,2,3,4,
{1}Cf/5bq2[8:17]*p8[8:17],
E
