&title=I Wanna
&artist=静香
&first=0.1
&lv_5=1
&des_5=
&inote_5=
(200){4},
&lv_7=协15?
&des_7=Trappola Toaster
&inote_7=
(200){4},{1},,{4},{8}5/6/2,
2,5/7/4,4,
5/6/3,4,5/7,4,5/6,4,5/7/2,3,
{4}5/6/4,{8}5/7/3,{16}4,4,{8}5/6/3,3,5/7/2,3,
5/6/3,2,5/7,2,5/6,2,5/7/4,3,
5/6/2,{16}5,5,{8}6/3,{16}5,4,{8}6/3,{16}4,5,{8}6/3,{16}4,5,
{8}6/4,{16}5,4,{8}3/5,{16}3,5,{8}3/6,{16}6,4,{8}6/3,{16}5/3,4,
{8}6/5,{16}4/6,5,{8}3/4,{16}3/6,4,{8}6/3,{16}5/4,6,{8}5/4,{16}6/3,5/4,
{8}6/3,6/5,5/4,4/3,{4},{8}5,5,
{16}5,4/3,5,4/3,6,4/3,5,4/3,{8}6b/5b,{16}4,3,{8}6/5/2,7/4,
6/5/3,{24}7,4,,{12}6/5,{24}4,7,{16},{48},{8}4/6/5,7,6/5/3,7,
6/5/4,7/3,6/5,7/2,7/5,6/1,7/5,6/2,
7/5/3,{24}6,4,,{12}7/5,{24}4,6,{16},{48},{8}7/5/4,6,5/7/3,{16}6,2,
7/5/1$b,2$,6/3$b,4$,7/5/1$b,2$,3$b,4$,6/5,4/3,6/5,4/3,{8}7/6,5/4,
7/6/2,{24}5,3,,{12}7/6,{24}3,5,{16},{48},{8}7/6/3,5,7/6/2,5,
7/6/4,5/3,7/6,5/2,6/5/3,4,5/4/3,6,
{6}6/5/3,4/3/6,6/5/3,{24}6/5/4/3,{16},{48},{24}5,{16},{48},{8}5,5,
{16}5/6,4/3,6/5,4/3,6/5,4/3,6/5,4/3,{4}6b/5b/4b/3b,{8}5,4,
6/5,6/5,{4}7/5/4,{8}3,5,4/3,4/3,
7/5,7/6,5/4,5/4,{4}4/3/6,{8}5,4,
6/3,6/3,5/4/3,6,4/3,4/3,7/6/5,7/6/5,
6/5/3,{4},{8}4,6/5/3,4,7/6/3/4,3,
8/7/4/5,{4},{8}5,3/4/6,5,2/3/6/5,6,
{4}1/2/5/4,{8}1/2,2/3,6/5,6,5,6,
5,6,5/4/3,3,4,3,4,3,
4/6/5,7/6,{4}8/7,{8}6/5/4h[4:1],3,7/5,4/3,
3/4/5h[4:1],6,2/4,5/6,6/5/4h[4:1],3,7/5,4/3,
{16}6,5,4,3,6,5,3,4,{8}4/3/6h[4:1],5,4/2,6/5,
5/6/3h[4:1],4,5/7,3/4,4/3/6h[4:1],5,4/2,6/5,
{16}3,4,5,6,3,4,6,5,{8}3/6/4h[4:1],5,6/5,4/3,
6/3/5h[4:1],4,3/4,5/6,3/6/4h[4:1],5,6/5,4/3,
{16}6/3,5,4,3,6/4,5,3,4,{8}6/5,6/5,4/3,4/3,
6/5/3,6/4/3,,5/4/3/6,,3,3,3,
{16}6/5,4/3,5/6,4/3,6/5,4/3,6/5,4/3,{8}6/5,4,5,4/3,
{16}3/6/5,4,3/7,4,{8}3/6/5,7,{16}2/7/5,4,2/6,4,{8}2/7/5,6,
{16}1/7/6,2,3/5,4,1/7/6,2,3/5,4,{8}6/5,5,4,5/6/3,
{16}6/3/4,5,6/2,5,{8}6/3/4,2,{16}7/2/4,5,7/3,5,{8}7/2/4,3,
2/3/6/5,4/7/6,{4}2/3/8/7,{8}6/4/3,6/5/3,6/5/4,5/4/3,
{24}6/3,5,4,3/6,{48},{16}5,{8}6/3,4,{24}6/3,4,5,6/3,{48},{16}4,{8}6/3,5,
{16}4,5,4/3,5,6/4,5,{8}4/3,,6/5,6/5/4/3,4/3,
6/5/4/3,6/5,{32}3,4,5,6,{8}4/3,{16},,{24},{6}6/5/4/3,6/5/4/3,
{4}6b/5b/4b/3b,{16}6/3,5,4,3,6,4,5,3,4,5,3,4,
5/E6,4,3,4/E4,6,5,3/C,4,6,5,6,5,3,4,3,4,
6/A3,5,4,3/A6,5,4,3/C,4,6,4,5,4,6,4,6,4,
5,3,5,3,6,4,5,3,6/5,1,5,3,6/5,C,5,4,
6/5,1,5,3,6/5,C,5,4,6,5,3,4,6h[4:1],5,4,3,
5h[4:1],6,4,3,4h[4:1],6,3,5,3h[4:1],6,5,4,5h[4:1],6,4,3,
4h[4:1],6,5,3,{8}6/5,6/5,{16}6/3,5,4,3,{4}2/6,
{16}3/6,4,5,6,{4}7/3,{16}6,5,6,1,6,4/3,6,1,
6,5,6,1,6,4/3,6,1,6,5,6,5,6,5,4,3,
6/A3,5,4,3/A6,,4,5/C,4,6,5,4,3,,5,4,3,
4/E4,5,6,5/E6,4,6,3/C,5,3,5,3,5,4,6,4,6,
3,5,4,6,7,8,1,2,3/4,2,8/1,7,6/5,7,8/1,2,
4/3,2,8/1,7,{4}6/5,{16}2/6h[4:1],5,4,3,7,4/3,5,3/2,
4/7h[4:1],6,5,4,6,4/3,7,5/4,2/6h[4:1],5,4,3,7,4/3,5,3/2,
4/7h[4:1],6,5,4,6,4/3,5,3/2,6/5,4/3,6/5,4/3,{4}6/5,
{16}6/3,5/4,6/3,5/4,{4}6/3,{16}7/4,6,5,4,3/6,5,4,3,
2/5,4,3,2,1/4,3,2,1,{4}3b/8b,2/7,
{16}5,4,5,4,6/5,4/3,6/5,4/3,{2}6b/5b/4b/3b,
,5h[2:1],
{4}4/3,{8}4,2/3,,4,{4}2/3,
{2}6/5/4,4h[2:1],
{4}5/6,{8}5,7/6,,5,{4}7/6,
{2}5/4/3,{8}4/5h[2:1],3,7,6,
{4}4/3,{8}3,6,5/4h[2:1],6,2,3,
{4}5/6,{8}6,3,4/5h[2:1],3,7,6,
4/3,6/5,{4}4/2/3,{8}5/4h[2:1],6,2,3,
5/6,7/6,5/4/3,5,4/3h[2:1],4,5,4,
{4}5/6h[2:1],{8}5/4,4/3,5,5/4h[4:1],3,3/5h[4:1],
4,4/6h[4:1],5,4,5/6h[2:1],5,4,5,
{4}4/3h[2:1],{8}4/5,5/6,4,4/5h[4:1],6,6/4h[4:1],
5,5/3h[4:1],4,5,4/6h[2:1],{4},{8}5,
{4}4/3h[2:1],6/5h[2:1],{8},6,{4}4/3,
,6h[4:1],5,{8}6,5/4,
,6,{4}5h[8:1]/4h[4:1]/3h[2:1],,,{32}3,
4,5,6,{4},{8}4,5/6h[2:1],5,4,5,
{4}4/3h[2:1],{8}4/5,5/6,4,4/5h[4:1],6,6/4h[4:1],
5,5/3h[4:1],4,5,4/3h[2:1],4,5,4,
{4}5/6h[2:1],{8}5/4,4/3,5,5/4h[4:1],3,3/5h[4:1],
4,4/6h[4:1],5,4,5/4h[4:1],5,5,5/6,
5/6h[4:1],5,5/4,5/4/3,5,5/6/3,3/5/6/4h[4:1],6/5/3,
3/6/5h[4:1],4/3/6,6/4/3,6/5/4/3,6/5/3,6/5/4,4/3/6,4/3/5,
6/5/2/3,6/5/3/4,3/4/7/6,4/3/6/5,7/6/2/3,6/5/4/3,7/6/2/3,6/5/4/3,
{16}3/2h[8:3],6/7h[8:3],4,5,3/4,6/5,4/3,6/5,{2}3h[4:7]/4h[4:7],
{1},,,{4},,{16}6/3$,
5,3$/4$,5,6/3$,4$,6/5,4$,
6/3$,5,4$/3$,5,6/3$,4$,6/5,4$,3$/6$,5$,4/3/6$,5$,3/6$,4,3/6$/5$,4,
3/6$,5$,4/3/6$,5$,3/6$,4,3/6$/5$,4,3/6$,5,4,5,3/6,4,5,4,
{8}6/3,5/4,5/4,6/5/4/3,,4,4,4,
{16}6/5,4/3,6/5,4/3,{4}6h[4:1]/5h[8:1],{2}Cf,
{1},,{4},{8},{16}1,
2,{8}3/4/6/5,{16}8,7,{8}6$/5$/4$/3$,{16}1,2,
{8}6bx/5bx/4bx/3bx,{16}8,7,{4}6$b/5$b/4$b/3$b,{16}3/6h[4:1],5,4,3,5,4,5,3,
6/5h[4:1],4,3,4,6,3,4,5,3/4h[4:1],5,6,5,3,5,3,4,
6/3h[4:1],4,5,6,4,5,3,6,{2}Cfh[4:3],
{4},,{16}6/3,5,4,3,6/4,5,4,3,
6/5,4/3,6/5,4/3,6/5,4/3,6/5,4/3,{4}5h[4:1]/4h[4:1],Cf,
{16}6/3,5,4,3/6,4,5,4/6,5,4/3,5,6,7,6/3,5,4,3,
2/5,3,4,3/6,4,5,4/7,6,5/4,3,2,7,6/3,4,5,6,
7/4,6,5,4/3,2,1,8,7,6/5,7,1/8,2,3/4,2,1/8,7,
5/6,7,1/8,2,{4}3/4,{16}7h[4:3]/2h[4:3],5,4,5,4,6,5,4,
5,3,4,5,4,5/4,3/6,7/2,5h[4:3]/4h[4:3],7,2,3,7,6,3,2,
6,7,2,3,6,5,4,3,6/5,4/3,6/5,3/4,{4}6/5,
{16}4/3/2,5/6/7,4/3/2,5/7/6,{4}4/3/2,{16}7/4,6,5,4,6/3,5,4,3,
5/2,4,3,2,{4}1b/4b,{8}6,6,3,3,
{16}6/5,3/2,6/7,4/3,6/5,3/2,7/6,4/3,{4},,,6h[8:5],
,,,5,
{16}4/3,5,4,3,6/5,3,4,5,
6/3,5/4,6/3,5/4,{4}6/3,{16}3/6h[4:1],4,5/2,3,{8}4,7/6,
{16}6/3h[4:1],5,4/7,6,{8}5,2/3,5/4,{16}6$/5$,4/3,{8}5$/4$,2/3,
{16}6/5,4,5,6,4/3,5,4,3,6/4h[4:1],5,6/3,5,{8}6,5/4,
{16}3/5h[4:1],4,3/6,4,{8}3,4/5,6/3,{16}4$/3$,6/5,{8}4$/5$,7/6,
{16}4/3,6,4,5,6/5,3,5,4,7/2,6/3,5/4,6/3,{8}7/2,5/4,
{16}6/3/4,5,3/6,4,{8}5,5/4,2/3,{16}6/5,5/4,{8}4/3,5/4,
{16}4/3/7,6,5/3,4,3/5/6,4,5/7,6,{8}5/3,{16}5/4,3,5/4,6,{8}5/4,
{6}7/6/5,4/3/2,{24},{16}6,5/4,6,8/1,6,4/3,6,8/1,6,5/4,
6,8/1,7/6,4/3,7/6,8/1,7/6,5/4,7/6,8b/1b,{4},,{8},{4}4h[8:5],
{8},3,,5/6,
,5,4,6/5,{4}4/3h[4:1],{8}2,5/6h[4:1],
,7,{4}4h[8:5],{8},3,,6/5,
{4},3/4h[4:1],{8}6/5,4/5h[4:1],{4}7/6,
{8}5/6h[4:1],{4},{8}6/5,5,3/4,5/4h[4:1],2/3,
,4/3h[4:1],,2,{4},,,{8}B5/B4,
Cf,
