&title=ETERNAL DRAIN
&artist=カラフル・サウンズ・ポート
&first=0
&des=HiddenMe
&lv_5=14
&inote_5=(149)
{1},,,
{16}3h[8:3],,,5,,,6,,7h[8:3],,,3,,,4,,5h[8:3],,,6,,,7,,8h[8:3],,,6,,,5,,
{16}4h[8:3],,,7,,,6,,5h[8:3],,,4,,,3,,2h[2:1],,,,,,7,6,5h[2:1],,,,,,,,
{16}2,,2,,4,,3,5,3,5,3,,6h[8:1],,4,,7,,7,,8,,7,1,7,1,7,,2h[8:1],,8,,
{16}3,,3,,8,,5,7,5,7,5,,8,,8,2,1,,1,,3,,2,4,2,4,2,,5,,3,3,
{24}7b,6,5,{16}4<7[32:3],1,,,4/2,,{24}2b,3,4,{16}5>2[32:3],1,,,5/8,,
{32}8b,7b,6b,5b,4b,,,,1b,2b,3b,4b,5b,,,,8b,7b,6b,5b,4b,3b,2b,1b,8b,7b,6b,5b,4b,3b,2b,1b,
{16}8b>3[8:1],,,5,8,,6,7,8<5[8:1],,,5,8,,2,1,8-4[8:1],,,4,8,,6,7,8<5[8:1]/4>1[8:1],,,,8/4,,,,
{16}4-8[8:1],,,2,4,,3,4,5>2[8:1],,7,,5-1[8:1],,6,,5,,,3,1,,2,8,1-5[8:1],7,{24}2,3,4,{16}1b,,2,1,
{16}8>3[8:1],,,4,8,,5,6,7>2[8:1],,,3,7,,3,4,5-1[8:1],,,1,5,,8,7,6-1[8:1],,2-5[8:1],,6,,2,,
{16}8,,{24}8,7,6,{16}1,6,1,6,2,5,2,5,3,4,3,4,3,5,4,6,4,5,3,4,2>5[8:1],6,5<8[8:1],7,2b,,,,
{4}4>1[8:1],4/6,4<7[8:1],4/2,4-8[8:1],4/7,{16}5<8[8:1],8,,,{4}5,
{4}1>4[8:1],1/7,1<6[8:1],1/3,1-5[8:1],1/6,{16}8<5[8:1],5,,,8,,2,1,
{4}8>3[8:1],8/5,5<8[8:1],5/3,4>1[8:1],4/8,7<4[8:1],{16}7/8,,,1,
{4}1>4[8:1],1/7,1<6[8:1],1/3,{16}2,,1/5,,1/5,,4,2,4>1[8:1],2,,,4/7,,7,6,
{4}5<8[8:1],{16}5/2,,3h[32:1],4h[32:1],5h[32:1],6h[32:1],7h[32:1],8h[32:1],1h[32:1],2h[32:1],3h[32:1],4h[32:1],5/8-4[8:1],,,,8/1,,,,2>5[8:1],4,,,2/1,,,,
{4}8<5[8:1],{16}8/3,,2h[32:1],1h[32:1],8h[32:1],7h[32:1],6h[32:1],5h[32:1],4h[32:1],3h[32:1],2h[32:1],1h[32:1],8/5-1[8:1],,,,5/7,,,,5<8[8:1],8,,,3/5,,3,4,
{16}5h[32:1]/1,6h[32:1],7h[32:1],8h[32:1],1h[32:1]/5,2h[32:1],3h[32:1],4h[32:1],5h[32:1]/1,6h[32:1],7h[32:1],8h[32:1],1h[32:1]/5,2h[32:1],3h[32:1],4h[32:1],8h[32:1]/5,7h[32:1],6h[32:1],5h[32:1],4h[32:1]/8,3h[32:1],2h[32:1],1h[32:1],8h[32:1]/4,7h[32:1],6h[32:1],5h[32:1],4h[32:1]/8,3h[32:1],2h[32:1],1,
{16}3h[32:1]/8,4h[32:1],5h[32:1],6h[32:1],7h[32:1]/4,8h[32:1],1h[32:1],2h[32:1],3h[32:1]/8,4h[32:1],5h[32:1],6h[32:1],7h[32:1]/4,8h[32:1],1h[32:1],2h[32:1],3/7,,2/6,,1/5,,4,3,6,5,7h[8:1],,2,2,4,4,
{16}3-7[8:1],,,8,,,6h[8:1],,8,,7,7,7,,5,6,5-1[8:1],,,7,,,4h[8:1],,2h[8:1],,{24}4,5,6,{16}7,,1,8,
{16}2h[4:1],,1,,8h[4:1],,3,,4<7[8:1],,7>2[8:1],,4,,,,6h[8:1],,{24}3,4,5,{16}6,5,6,5,7,4,7,4,8,3,8,3,
{16}1<6[8:1],,,4,,,2h[8:1],,5,,3,3,3,,4,2,4<7[8:1],,,1,,,3,,4h[8:1],,{24}8,1,2,{16}3,,2,4,
{16}2>5[8:1],,,4,2,,7,,7<4[8:1],,,5,7,,2,,
{16}1h[8:1],,{24}4,5,6,{16}1,7,1,7,2,6,2,6,3,5,3,5,4,5,3,6,2,7,1,8,3,6,1,8,4,5,2,7,
{16}4b>1[8:1]/8,,3,5,4,,7,,6<1[8:1]/1,,7,8,6,,3,,4-8[8:1]/8,,3,7,4<7[8:1],,5,,1-5[8:1]/4>1[8:1],,,,4/1,,,,
{16}5<8[8:1]/1,,6,1,5,,2,,3>8[8:1]/8,,2,1,3<6[8:1],,6<1[8:1],,3,,,,5,,2,6,1,7,{32}1,,7,6,{16}5/2,,3,4,
{16}5/2>5[8:1],,1,8,2,,7,,6<1[8:1]/5,,7,4,6,,2,,3-8[8:1]/1,,2,1,3,,7,,6-3[8:1]/8,,7,1,6,,2,,
{16}2/4,,{24}4,5,6,{16}8,7,1,6,3,5,4,6,2,1,3,8,5b,5b,6b,,3b,3b,4b,,8b,8b,7b,7b,2b,2b,1b,1b,
{16}4b-1[8:1],,5,3,4,,2,,1-4[8:1]/3,,2,8,1,,6,,5-1[8:1]/3,,4,6,5-8[8:1],,6,,1<6[8:1]/5>2[8:1],,,,5/1,,,,
{16}1-5[8:1]/7,,8,2,1,,3,,2>5[8:1]/5,,1,6,2<7[8:1],,7<4[8:1],,2,,,,7,,2,6,1,7,{24}2,3,4,{16}5/8,,6,5,
{16}4-8[8:1]/7,,5,3,4,,2,,1-5[8:1]/3,,2,8,1,,8,,5-8[8:1]/7,,6,4,5,,3,,8-3[8:1]/2,,1,7,8,,7,,
{16}3/8,,{24}8,7,6,{16}4,5,3,6,1,7,2,8,5,6,4,7,3b,3b,4b,,1b,1b,8b,,5b,5b,6b,6b,3b,3b,4b,4b,
{16}2h[8:1],,{24}4,5,6,{16}1,7,2,8,4,8,5,7,4>1[4:1],6,4,5,1b<6[8:5]*-5[8:5],,,,,,,,,,,,,,,,
{16}8<5[8:1]/4,,,3,8,,2,1,8>3[8:1]/4,,,4,8,,6,7,8-4[8:1]/4,,,5,8,,3,2,1>4[8:1]/4-8[8:1],,,,4/1,,,,
{16}1<6[8:1]/5,,,4,1,,3,2,1-5[8:1],,5>2[8:1],,1<6[8:1],,8,,1,,,2,5,,1,6,8-4[8:1],7,{24}1,2,3,{16}8/4,,3,2,
{16}1>4[8:1]/5,,,6,1,,7,8,1-5[8:1]/5,,,5,1,,3,2,1<6[8:1]/5,,,4,1,,4,5,6<1[8:1],,2>5[8:1],,6,,2,,
{16}1,,{24}1,8,7,{16}5,6,4,5,3,6,2,7,1,8,2,1,3,3,4,,6,6,5,,1,1,7,7,2,2,8,8,
{16}1,,{24}7,6,5,{16}1,4,2,5,8,6,1,7,5b,1b,3b,7b,,5,3,4,1,6,4,8,2h[8:17],,,,,,,,E
