&title=La'qryma of the Wasteland
&artist=DJ Noriken
&first=0
&des=To Drink from a Dry Well(The line descends to sound the void, returning with silt that dreams of rivers and sometimes, pressed to its heart, a petal yet unlearned of bloom. This is the arid liturgy: where thirst communes with latent springs, and dust remembers how to bear what never was)
&lv_5=14
&inote_5=(168)
{1},,
{16}3xh[8:1],,5,4,5,4,7h[8:1],,3,4,3,4,1>8[2:7],,,,
{2}1h[1:0]`6b,,1h[1:0],,1h[1:0],,
{4}1h[1:0],,2x-7[16:2],,
{16}6,,,,6/5,,,,7-5[8:1]/4,,,,3,,3,,
{16}2/4,,2,,2/6,,2,,1,8,1,8,2,,2xh[1:0],,
{16}7,8x,{24}2xb,3x,4x,{16}7,8x,{24}2b,3,4,{16}7,8x,{24}2b,3,4,{16}7,8x,{24}2b,3,4,
{16}1x<6[8:1],,,,5,,2h[8:1],,4,3,4,3,E6,,,,
{8}1,4,3-6[8:1],3,5x,7,8,6,
{8}1,8,3-6[8:1],3,5x,7,2,6,
{8}1,4,3-6[8:1],3,5x,7,8,6,
{8}1,8,3-6[8:1],3,5xv4[32:5],7,,,
{8}6,5,8-4[8:1],8,4x,2,5,3,
{8}6,4,8-4[8:1],8,3x,1,7,4,
{8}6,5,8-4[8:1],8,4x,2,5,3,
{16}7xV51[32:6],,,4,,3,3,,2x-6-4[32:6],,,5,,7,7,,
{8}8xw4[8:1],,8b,,5x-1[8:1],5,2-4[8:1],2,
{8}7-5[8:1],7,2-6[8:1],2,4x-8[8:1],4,1,3,
{8}7-5[8:1],7,2-6[8:1],2,4x-8[8:1],4,3,3,
{8}7-5[8:1],7,2-6[8:1],2,4xz8b[32:5],,,,
{8}3b,3,2x/4x,3,1b/5b,3,{16}5,4,5,4,
{8}6b,6,5x/7x,6,4b/8b,6,{16}3x/7x,2/6,1/5,,
{16}8,4,2,5,3,7,5,6,1b,,,3b/8b,,,1b/5b,,
{16}2x>5[8:1],,,,6,,8h[8:1],,5,6,5,6,E4,,,,
{8}1b>8[8:13]/8b,,,,,,,,
{8},,,,E3/B2/B3,,,,
{8}4q5[4:3],,,,,,,,
{8}6h[4:2],,,,E7,E6,E5,E4,
{8}2<3[8:13],,,,,,,,
{8},,,,E1/B1/B8,,,,
{8}5qq4[4:2]*pp6[4:2],,,,,,,,
{8}4h[4:1],,,{24}6b,5b,6b,{16}4,5,{8}3,4x,2x,
{16}1bx-7[8:1],,,,6,,6-2[8:1],,,,3,,3>8[8:1],,,,
{16}7,,6,,4xh[16:3],,,7,,,3/5,,2v5[8:1]*-6[8:1],,,,
{16}2b,,,,4,,4-2[8:1],,,,6,,6<1[8:1],,,,
{16}2,,3,,5xh[16:3],,,2,,,4/6,,7-4[8:1]*-3[8:1],,,,
{16}7b,,,,5,,5-1[8:1],,,,3,,3>8[8:1],,,,
{16}7,,5,,4xh[16:3],,,5,,,5/2,,3v8[8:1]/7-4[8:1],,,,
{16}3b/7b,,,,1,,5/2-5[8:1],,,,7,,8<1[4:3],,,,
{8}2b,,,,,,B5/E5/B4,,
{1}7bpp2[4:12]/3b,,,
{8},,,,,,8,8<4[4:3],
{8},,,,,,3,3h[8:7],
{8},,,,,,2,2>6[4:3],
{8},,,,,,4,4h[8:5],
{8},,,,5x-8[8:1],,,,
{8}2b/6b,,4,,3/7,,5,5,
{8}2b/6b,,5/4,,3/7,,4/5,{16}3,4,
{8}2b,2,1/5,6,1/5,7,{16}2,8,2,8,
{8}7b/3xb,7,4/8,3,4/8,2,1/7,{16}2,6,
{16}3b,5,4,5,4,5,4,5,2b,4,3,4,1,4,3x,3x,
{16}6b,4,5,4,5,4,5,4,7b,5,6,5,8,5,6xh[8:1],,
{24}3,4,5,8,7,6,1,2,3,7,6,5,{32}2,3,4,5,6,7,8,1,2,3,4,5,6,7,8,1,
{128}2xbpp1[16:5],6xbpp5b[16:5],,,,,,,{16},,,,,,,,,,,3x/7x,,,,
{16}1b/2b,,7,,1/6,,8,7,,5,,6x/4x,,3,4,3,
{16}5x,,2,,3/7,,8,2-5[32:3],,4,,2x,,6,7,8,
{16}1bx/5b,,4,,3/5,,2,4,,1,,2x/6x,,5,4,5,
{16}3x,,8,,1/7,,6-1[32:3],2-4[32:3],,6x,,2x,,8x,7,6,
{16}5/1b-3[32:3],,,4,1-5[8:1]*<6[32:3],,7,,1b,,,,4x,3,2,1,
{16}7b-5[8:1],,,8,7,,2,,2b-5[8:1]/4b-8[8:1],,,,,,,,
{16}7x/6x,,5,,4/6,,3,4-8[8:1],,1,,4x,,2,3,4,
{16}5-2[32:3]/7b,,,8b-4[32:3]/5b,,,8b,,1x,2x,3x,4x,6x,7x,8x,1x,
{16}5b,,3,,8/1,,7,5>2[8:1],,8,,5x,,7,6,5,
{16}4/1b,,2,,3/8,,2-8[32:3],7-5[8:1],,2x,,7x,,1x,2,3,
{16}4/8b,,6,,1/8,,2,4<7[8:1],,1,,4x,,2,3,4,
{16}5bxh[16:3]/8b,,,,{24}1,2,3,4,5,6,{16}7b/3b,,,2b/6b,,1b/7b,2b/6b,,
{16}3bx,4,3,4,3,4,3,4,2b,6,4,5,1x,2,3,4,
{16}6b,5,6,5,6,5,6,5,7b,3,5,4,8x,7,6,5,
{16}2x,4,3,5,1x,4,3,5,1b,,6,5b/7b,,3,4b/2b,,
{32}1x/5x,2/6,3/7,4h[32:9]/8h[32:9],{16},,,,,,A6/B6/Cf/B2/A2/B3/B7,,,,,,,,
{16}1b/8b,,3,7,1,,4,2,6,,4,7,8<5[8:1],,,,
{16}1xb/8xb>3[8:1],,,,4x/8x,,,,6-4[32:3],,7,,1-5[8:1],,3,,
{16}1b/8b,,6,4,8,,5,7,3,,4,2,1<6[8:1],,,,
{16}1xb-5[8:1]/8xb,,,,1x/3x,,,,4-6[8:1]*-7[8:1],,2,,4b,,,,
{16}1b/8b,,2,6,4,,5,3,7,,4,6,8<5[8:1],,,,
{16}8xb>3[8:1]/1xb,,2,,8x/4x,,6,,5x-2[8:1]/7x-4[8:1],,,,5b/7b,,,,
{16}1b/8b,,6,2,8,,5,7,1,,5,3,1>4[8:1],,,,
{16}1b/8b<5[8:1],,7,,1b/8b,,2,,{32}1bx,2,3,4,5,6,7,8,{4}1bx/5b,
{16}8b/1b,,6,2,8,,5,7,3,,5,2,1>4[8:1],,,,
{16}8xb/1xb<6[8:1],,,,5x/1x,,,,3-5[32:3],,2,,8-4[8:1],,6,,
{16}8b/1b,,3,5,1,,4,2,6,,5,7,8>3[8:1],,,,
{16}8xb-4[8:1]/1xb,,,,8x/6x,,,,5w1[8:1],,6/4,,,,,,
{16}8b/1b,,7,3,5,,4,6,2,,5,3,1>3[32:3],,,,
{16}1xb-4[8:1]/8xb,,8,,7b/1-5[8:1],,7,,1/6b,,6,,{32}8b,7,6,5,4,3,2,1,
{16}4b/8bxh[8:3],,,,,,6h[8:3],,,,,,2h[1:0],,,,
{16}Ch[4:3],,,,,,,,,,,,A7/A6/E7f/B7/B6/A2/B2/B3/E3/A3,,,,
{8}1x-3[8:1],1x,7-5[8:1],7,8x-4[8:1],8,5-1[8:1],5,
{8}2-4[8:1],2,7-3[8:1],7,5x-1[8:1],5,8,6,
{8}2-4[8:1],2,7-3[8:1],7,5x-1[8:1],5,6,6,
{8}2-4[8:1],2,7-3[8:1],7,5xs1b[32:5],,,,
{8}6b,6,7x/5x,6,8b/4b,6,{16}4,5,4,5,
{8}3b,3,4x/2x,3,5b/1b,3,{16}5x/1x,6/2,7/3,,
{16}4x,3x,{24}7bx,6,5,{16}3,2x,{24}7b,6,5,{16}2,1x,{24}7b,6,5,{16}2,1x,{24}7b,6b,5b,
{16}8xh[8:1],,4,2,4,2,7h[8:1],,5,6,5,6,8x-4-2[16:2],
