&title=もどかしい世界の上で
&artist=牧野由依
&first=0.05
&des=N.H.K.
&des_5=N.H.K.
&lv_5=12+
&inote_5=(111){4},{8}5,6,{2}7h[4:3],
{4},{8}5,4,{2}3h[4:3],
{4},{8}4,5,{2}6h[#1.621622],
{4},(110){8}5,4,{16}3h[2:1],{4},{8},{16}8,
{4}8b,{8}2/6,{16}3,4,{8}3,{16}8,5,6,4,{8}7,
3/5,2,1/5,{16}2,4,{8}3,{16}7,4,6,5,{8}8,
3/5,6,7/1,4,4,5/6,7,7,
4/6,4,5/3,3,3/7,3,4/7,7,
7/2,7,{4}1h[4:1],,1/5h[4:1],
{8}6,6h[4:1],,7,{4}8h[4:1],{8}2,2,
{16}5h[16:3],{4},{16}3V52[16:3],{8}8,{4},8h[4:1],
{8}1,2h[4:1],,6,7-4[8:1],1,{4}4-8[8:1],
{8}2,1h[4:1],,7,7h[16:3],{16}4,4,{8}8,8h[8:1],
2<7[8:1],2,6,5h[4:1],,8pp3[4:1],,5,
{16}6h[16:3],{4},{16}5V74[16:3],{8}1,{4},{8}2,2h[8:1],
7qq8[16:5],7,{4}3h[4:1],{8},2,{4}7/1h[8:3],
{8}7,6h[8:3],{4},{16}1,1,5,5,{4}2h[8:1]/4h[8:1],
4h[8:1]/2h[8:1],3h[8:1]/5h[8:1],3h[8:1]/5h[8:1],6h[8:1]/4h[8:1],
6h[8:1]/4h[8:1],7h[8:1]/5h[8:1],{8}5/7h[8:1],{16}4,4,{4}3h[8:1]/8h[8:1],
3h[8:1]/8h[8:1],4h[8:1]/7h[8:1],{8}7/4,6h[8:3],{4},{8}3,
2/8V64[8:1],,8,{4}1,{8}5/2h[8:1],5,
5/2h[8:1],5,3/6h[8:1],3,3/6h[8:1],3,{16}4/7h[4:1],{8},{16}3,
{8}3,2b/8b,,3b/7b,4b/6b,5h[4:3],{4},,{8},{32}6,
7,8,1,2,3,4,5,{8},8/2>5[8:1],6,
2/8,{16}7,7h[16:3],{8}6,6>3[8:1],7/1,6/3,1pp8[4:1],{16}6,6h[16:3],
{4},{16}6,6,1,5,{8}2h[8:1],6,{16}8/1-5[16:1],{8},{16}1/2,
{8},1-5[16:1],{16},1/2,{8},3,3/5,6/2>5[8:1],1/7,
6/2,{16}7,7h[16:5],{4}6<4[16:3],,{8}7<4[8:1],3,
7/1,{16}2,2h[16:3],{8}3,3<6[8:1],2/8,3/6,8qq1[4:1],{16}3,3h[16:3],
{4},{16}3,3,8,4,{8}7h[8:1],3,{16}1/8q4[16:1],{8},{16}8/6,
{8},8q4[16:1],{16},8/6,{8},6pp5[4:1],1,4qq5[4:1],3,
4,7,{16}8,8,4,6,{8}1-5[8:1],2/8,{4}1/7<4[8:1],
{8}7/3,1-5[8:1],,1/8,6,{16}4,3,{4}2/8-4[8:1],
{8}8/2,3-8[8:1],,5/3,{16}6,6,{8}1,3/5,{16}6,7/4,
,3,{8}2/5,{16}6,6,1,5,{8}3b,{4},{8}4-8[4:1],
,4h[4:1],{4},3/7h[4:1],{8}1b-5[8:1],1,
6,7<4[8:1],7,3,3,2,1/5-1[8:1],5,
1,2>5[8:1],2,8,7,7,2/6-4[8:1],5,
6/1-5[8:1],8,1/7,7,6/4,1,3/5,5/2,
1/5,5/8,4h[8:1],{32}8,7,6,5,4,3,2,1,{8}8,{4}5bw1[4:3],
