&title=LEMON MELON COOKIE
&artist=TAK/ヰ世界情緒
&first=-1.27
&des=間奏-100秒
&lv_5=13+
&des_5=間奏-100秒
&inote_5=
(180){4},{8},,,,,,2,
3,2,3,2,3,2,3,
2h[8:1],3h[8:1],2h[8:1],3h[8:1],,,,,{4}5/6,
6/5,6h[8:1]/5h[8:1],5h[8:1]/6h[8:1],
8/2h[8:1],8/2h[8:1],8/2,2/8,
3/4,4/3,3h[8:1]/4h[8:1],3h[8:1]/4h[8:1],
8/7h[8:1],8/7h[8:1],8/7,8/7,
3/5,3/5h[8:1],4/1,4/1h[8:1],
6/4,6/4h[8:1],5/8,5/8h[8:1],
1v4[8:1]*v6[8:1],1b,{8},2/1V35[4:1],,1/8h[8:1],
,6,,4h[4:1],5h[4:1],,,4/3h[8:3],
,,{4}8,4/3h[4:1],{8}7,5/6h[8:3],
,5,{4}8,{8}5/6h[8:1],1,2,3/4h[4:1],
,1,{4}8,3/4h[4:1],{8}8,7,
{4}5/6h[2:1],8,{8}1>4[8:1],8v6[8:1],,,{4}5h[8:7],
7b,{8},2b,,8b,
,,{4}6,{8}3v8[8:1],4<7[8:1],,,{4}1h[4:1],
{8}6,6,,4h[8:1],{16}5,4,{8}6h[4:1],
,4q6[8:3],,7,{4}7,1h[1:1],
6h[8:1],6h[8:1],6h[8:1],6h[8:1],
1h[8:1]/6h[8:1],1h[8:1]/6h[8:1],1h[8:1]/6<1[4:1],6/1V75[4:1],
5V71[4:1],1V75[4:1],5V71[4:1],1q6[4:1],
6,{8}7,8,{2}1bV75[8:1]/5bV31[8:1],
{4}8h[4:3]/3h[8:1],3h[8:1],3h[8:1],3h[8:1],
8h[8:1]/3h[8:1],8h[8:1]/3h[8:1],8h[8:1]/3>8[4:1],3/8V24[4:1],
4V28[4:1],8p4[4:1],4,{8}3,2,
{2}1-3[8:1]/5-7[8:1],1-7[8:1]/5-3[8:1],
{8}6,5,4,3h[8:1],5,4,3,3,
7,6,5,4h[8:1],6,5,4,4,
6,5,4,3,{4}6-8[8:1]*-2[8:1],6>1[8:1],
{8},,,8<4[8:1]/4>8[8:1],{2}8b/4b,
{8}7-5[8:1],4,7,2,1-3[8:1],4,1,4,
5-7[8:1],3,5,3,4-2[8:1],1,4,8,
7-5[8:1],8-4[8:1],7,8,1-6[8:1],2-5[8:1],1,2,
7,8V24[4:1],2V86[4:1]*V46[4:1],8,,,,,3-5[8:1],
6,3,7,8-6[8:1],5,8,4,
3-1[8:1],4,3,4,5-7[8:1],8,5,1,
2-4[8:1],1-5[8:1],2,1,8-3[8:1],7-4[8:1],8,7,
{4}1bV35[8:1]*V75[8:1],1b,{8}2V86[4:1],8V64[4:1]*V24[4:1],{4}2,
,2/6V82[4:1],{8}2,3,4,5V31[4:1],
,1,7,5V71[4:1],,2,{4}4>8[4:1],
8<4[4:1],4>1[4:1],8,6,
{2}1-5[8:1]/5-7[8:1],8-4[8:1]/4-2[8:1],
{4}1V35[4:1],{8}6,7,{4}8V64[4:1],{8}3,2,
{4}1h[4:1],2h[4:1],3h[4:1],4h[4:1],
{8}1,4h[8:1],1,4h[8:1],1,4h[8:1],1>4[8:1],4h[8:1],
{4}1b<6[8:1],1b,{8}4V28[8:1]*V68[8:1],5,{4}4b,
2b-5[8:1]/6b-2[8:1],2/6,{8}1h[8:1],4,8,7-4[8:1]/3-7[8:1],
,3/7,,8,{2}4V68[8:1]/8V24[8:1],
{4}1-6[8:1]/5-1[8:1],1/5,{8}2h[8:1],7,3/8,4/1-6[8:1],
,3-8[8:1],,5V71[4:1],,1,{4}2-5[8:1],
2b-7[8:1]/6b-3[8:1],2/6,{8}1h[8:1],5,2,3-8[8:1]/7-3[8:1],
,7/3,,1,{2}1V35[8:1]/5V71[8:1],
{8}7,6,7,6,7,6,7,2,
{2}2>6[8:1]*-6[8:1],{4}1<1[4:7],1h[4:5],
,,,,,,{2}8h[4:1],
6/5h[2:1],{8}8,,,2h[4:1],
,4,{4}3h[4:1],{2}8,
5/6h[2:1],{4}1,{8}3,5,
4h[4:1],1,8>4[4:1]*<4[4:1],7,,,,,{4}3/5h[2:1],
2,1,2,
{8}7h[2:1],2,3,4,{4}5h[4:1],8h[4:1],
3>6[2:1],7,6,5,
4>7[2:1],6,5,4,
4/5,3,4/1,3,
5/4,6,5/8,6V48[16:3],
{8}4h[8:1],,,7h[8:1],{4}5h[4:1],4h[2:1],
{2}3h[4:1],1h[4:1]/8h[4:1],
{8}8h[8:1],7h[8:1],1h[8:1],2h[8:1],7h[8:1],6h[8:1],2h[8:1],3h[8:1],
6h[8:1],5h[8:1],3h[8:1],4h[8:1],{2}5bV71[8:1]*V31[8:1],
{8}4h[4:1]/6h[4:1],,,4/6,,6/4,,5/3,
,5/3,{4}3qq4[4:1]/5pp4[4:1],,,5/6,
5/6h[4:1],{8}1,5,2,4/3,
,4/3h[4:1],,8,{4}7/1,1/7,
6/5,5/6h[4:1],{8}4,5,3,1/2,
,2/8,3/7,4/6,{2}5V31[8:1]*V71[8:1],
{4}4/3,4/3h[4:1],{8}8,4,7,5/6,
,5/6h[4:1],,1,{4}2/8,8/2,
3/4,4/3h[4:1],{8}5,4,6,8,
7h[8:1],1h[8:1],4h[8:1],3h[8:1],6h[8:1],4h[8:1],8h[8:1],2h[8:1],
{4}1V75[4:1],{8}3,3-8[8:1],,4,{4}4-7[8:1],
8V24[4:1],{8}6,6-1[8:1],,5,{4}5-2[8:1],
{8}8,7,6/1,2,{4}3<5[8:1]/7>1[8:1],7V53[8:1]/3V17[8:1],
{8}3b/7b,,,8V24[8:1]/4V68[8:1],{2}8/4,
{8}1b/5b,,,1V75[8:1]/5V31[8:1],1/5,,,8b/4b,
,4b/8b,{4}8b/4bqq4[4:1]*pp4[4:1],{8},,,,2h[4:1]/6h[4:1],
,,5/1-5[8:1],,7-3[8:1],,2-5[8:1],
,1,8,7,{24}4/6,3,2,1,8,7,5,4,3,2,1,8,
{8}7b-5[8:1],8-4[8:1],7,8,1-6[8:1],2-5[8:1],1,2,
7,8V24[4:1],2V86[4:1]*V46[4:1],8,,,,,2b-6[8:1],
6-4[8:1],2,8,1-7[8:1],3-1[8:1],1,3,
6-2[8:1],2-8[8:1],6,4,5-3[8:1],7-5[8:1],5,7,
2-4[8:1],1-5[8:1],2,1,8-3[8:1],7-4[8:1],8,7,
{4}1bV35[8:1]*V75[8:1],1b,{8}2V86[4:1],8V64[4:1]*V24[4:1],{4}2,
,7/1,{8}2/6,7/3,4/8,5/1V75[4:1],
,5,3,1V35[4:1],,6,{4}8<4[4:1],
4b>8[4:1],8<4[4:1],4,2,
{2}5bV71[8:1]/1bV35[8:1],4bV28[8:1]/8bV64[8:1],
{4}1V35[4:1],{8}6,7,{4}8V64[4:1],{8}3,2,
{4}1h[4:1],2h[4:1],3h[4:1],4h[4:1],
{8}1,4h[8:1],1,4h[8:1],2,4h[8:1],8,4h[8:1],
1,4h[8:1],7,4h[8:1],2,4h[8:1],8,4,
1,7,5,6,2,8,4,5,
1,7,3,4,2,8,4,5,
2,3,2,3,2,3,2,8,
{2}8h[2:1],3<8[8:1],
{8}6h[8:1],5,4/5,3h[8:1],1V75[4:1],2,3,4bV68[4:1],
,2b,3,4,{16}1,2,3,4,{4}5/1b,
{8}3h[8:1],4,5/4,6h[8:1],8V24[4:1],7,6,5b-1[8:1],
,3b-7[8:1],,8bV64[4:1],,1,{4}2h[4:1],
{8}3,4,5/4,6h[8:1],8V24[4:1],7,6,5bV31[4:1],
,7b,6,5,{16}8,7,6,5,{4}4/8b,
{8}2,3,2,3,2,3,2,8,
{4}8h[4:1],2,{2}1V35[8:1]*V75[8:1],
E
