&title=disperagioia
&artist=gmtn.(witch's slave)
&first=0
&des=NekoMuseigen
&wholebpm=180
&lv_5=13
&inote_5=(180){1},,
{4}7/1h[4:5],,,3h[4:5],,,6h[4:5],,,8h[4:5],,,2h[4:5],,,4h[4:5],,,6h[4:3],,,5p4[8:4],,,
1>4[16:4],7,7h[4:1],1<6[8:2],3,3h[4:1],1>5[8:2],6,6h[4:1],
1<5[8:2],4,4h[4:1],1>6[8:2],7,7h[4:1],1<4[16:4],3,3h[8:2],1>7[16:5],8,8h[4:1],1q3[8:4],6,6,
8<5[16:4],2,2h[4:1],8>4[8:2],5,5h[4:1],8<4[8:2],3,3h[4:1],
8>5[8:2],6,6h[4:1],8<3[8:2],2,2h[4:1],8>6[16:5],7,7,8p6[8:4],4,4,2q4[8:4],5,5,
8pp7[8:4],5,5,2qq3[8:4],5,5,8pp1[8:3],5,5,2qq1[8:3],5,5,8pp8[8:4],5,5,2qq2[8:4],5,5,
8z4[16:14],,,,,{16},,,,{48}1b/8b,27,36,4z8[16:4]/5s1[16:4],,,{16},,,,,,,,,,
6/3h[8:1],,4h[8:1],,2h[8:1],,6h[8:1],,5h[8:1],,7,,1bpp5[16:5]/8bqq5[16:5],,,,,,,,,,,,
6h[8:1]/4,,2h[8:2],,{24}7,6,5,{16}4,,4/3,,6,5,7bqq1[16:5]/4bpp1[16:5],,,,,,,,,,,,
2/8,,6,5,6,,74,,3h[8:1],,4,,2bpp7[16:5]/5bqq7[16:5],,,,,,,,,,,,
6,5,8,,65,,3,4,2,,34,,
{8}
4b/5,5,52,5,58,5,5b/4,4,47,4,41,4,
4b/6,6,71,7,83,8,1b/4,4,37,3,52,2,
{16}7/1b,,2,6,4h[8:1],,7,3,5h[8:1],,2,6,4h[8:1],,7,,8,2,1,3,8h[8:1],,4,,73,,
6,2,8h[8:1],,3,7,1h[8:1],,
5,3,4,2,{48}5h[8:1],,,,,,{48}1,2,3,4,,,{16}6b,,{48}2,3,4,5,,,{16}7b,,
{16}3s7[16:5],,,,4b,,,,5w1[8:1],,,,,,,,
{8}
37,2,1-4[8:1]/5,,1/6-1[8:1],,6/5-2[8:1],,
5/8-5[8:1],,1<6[8:1],2,3/1-4[8:1],,7/1qq6[8:3],,5,4,3,2,1-5[8:1],7-3[8:1],1,7,
4-8[8:1],,4/7-3[8:1],,7/1-4[16:2],1,1V75[16:3],,1,,4-1[16:2],4,4pp7[16:7]/5,,,
1,2,3,4h[8:1],8h[8:1],3-1[8:1],7-4[8:1],3-7[8:1],7,
3,5,6-1[8:1],6,4/6-2[16:2],4,63,,4h[8:2],,5-8[8:1],6,5/7-3[8:1],,1-5[8:1]/7,,
1-3[8:1]/6,6,7/1-4[8:1],7,8/1-5[8:1],8,71,7,
4/6-4[16:2],,6V82[8:1]/8,,3,4,5v3[16:2],,7/5V71[16:3],,2,3,4bqq1[8:3],5b,6b,7,8,7,
6,{16}6,4,7,5,6,4,5,3,4,2h[16:5],,,,,1bv6[8:1]*v4[8:1],,,,,,,,5,5,5,5,5,5,5,5,5,5,5,
5/4bv1[8:1]*v7[8:1],,,,,,,,,8,8,8,8,8,8,8,8,8,8,8,8,8,8,8,8,1b/8,,,2/4b-8[16:3],,,
5/7b,,,,,,1,1,1,1,1,1,1,1,1,1,1,1/8bv3[8:1]*v5[8:1],,,,,,,,,4,4,4,4,4,4,4,4,4,4,4,4,4>1[8:1],,,,8,7,6,5,8,1,2,3,45,6,7,8,3,3h[16:3],,5,5h[16:3],,1,1h[16:3],,7,7h[8:2],,
4,3,2,1,4,5,6,7,81,2,3,4,7,7h[16:3],,1,1h[16:2],,5,3,6,4,7h[16:3],,
{48}2b,3,4,5,,,,,,1b,2,3,4,,,,,,{16}71,,8,8,8,,
{48}7b,6,5,4,,,,,,8b,7,6,5,,,,,,{16}28,,1,1,1,1,
{12}2b,4,3,8,6,7,1,3,2,7,5,6,{32}3,,,5,4,5,4,5,{4}
4b-8[8:8],7,7,5,7,7h[4:3],4,2,2h[4:3],6,8,8h[4:3],3,1,1h[4:3],
4,6,6h[4:3],5,3,3h[4:1],{16}4z8[8:3],,,3,,,3h[8:3],,,,,,
{8}
5,4,7h[1024:1]/3,2,3,4,
6,5,4,3,4,5/2h[1024:1],
6,5,7h[1024:1]/4,3,4,5,
7,6,2h[1024:1]/5,4,5,6/2h[1024:1],
3,4,7h[1024:1]/5,6,5,4,
65,4,3,2,3,4/2h[1024:1],
3,2,1/7h[1024:1],8,1,2,
34,5,6/2h[1024:1],5,4,3/7h[1024:1],
84,,74,,64,,53,,25,,15,,
62,,73,,84,4,74,,63,,52,5,
{12}5/1,,2,5,,3,5,,4,5,,6,5,,7,5,,8,5,7,7,4,6,6,3,5,5,2,4,4,1,5,5,62,,,
1bpp8[16:5]/8b<1[16:5],,,,,,,,,18,7,6,54,3,2,1h[12:2]/8h[12:2],,,
8bqq1[16:5]/1b>8[16:5],,,,,,,,,81,2,3,45,6,7,8h[12:2]/1h[12:2],,,
1b/8bV26[16:4],,,,,,4V25[8:2],,,4b/5bV31[16:3],,,,,,8bV61[8:2],,,8b/1bV35[8:2],,,5bV71[8:2],,,1b,,,4,,3,24,,6,75,,34,24,,65,75,,34,25,,65,
74,,18,{32}7h[8:2]/2,,,,,,,,1,2,3,4,5,6,7,8,{6}1-5[12:1]/5,8-4[12:1],2-7[12:1],
6-3[12:1],4-8[12:1],5s1[12:3],{8},,,,,,
{16}18,,6,5,7,,64,,3-7[8:1]/5-1[8:1],,2,,35,,,,82,,3,4,2,,35,,1-5[8:1]/6,,7-3[8:1],,1,,7,,8w4[8:1],,,,8,,,,
6/2-5[8:1],,53,,6-1[8:1]/2,,7,,64,,3,,2-6[8:1],,53,,7V15[16:3]/2,,8,,74,,3,,
2,,3,4,2,4,1,,73,,6,5,7-3[8:1],,8,,37,,2,,1v4[8:1]/5v8[8:1],,,,15,,,,37,,15,,
26,,3-8[8:1],4,2,4,3,,5-1[8:1],,64,,7-3[8:1]/5,,,,78,,,,24,,35,,4h[8:1]/6,,7,5,6<1[8:1],3,5,4,6>3[8:1],,2,,6/2h[8:2],,,,
{8}1-5[8:1],2-6[8:1],1<6[8:1],2>5[8:1],1,2,8-4[8:1],1-5[8:1],8<5[8:1],1>4[8:1],8,1,7-3[8:1],8-4[8:1],7<4[8:1],8,{16}7,,2,2h[16:3],,4,4,,35,,46,,7,7,5,5,6,6,2,2,4,4,3,3,
8b<5[8:1],,4,4,8>3[8:1],,2,2,8-5[16:2],,4,,8/4-1[32:4],,,,4/8V64[16:3],,,,3,,2,,
1b>4[8:1],,5,5,1<6[8:1],,7,7,1-4[16:2],,5,,1/5-8[32:4],,,,5/1V35[16:3],,,,6,,7,,
8<5[8:1],,3,3,8>3[8:1],,1,1,8-5[8:1],,4,,4-1[8:1]/8,,,,4-8[8:1]/6-2[8:1],,,,64,,,,
7,6,5,4,1,2,3,4,57,,56,,{24}3,4,3,{16}4,,24,,14,,15,,16,,
1/7-5[8:1],,4,4,7-1[8:1],,2,2,7-3[8:1],,3,,7-5[8:1]/2-8[8:1],,,,27,,,,46,,37,,
8/2-4[8:1],,5,5,2-8[8:1],,7,7,2-6[8:1],,6,,2-5[8:1]/7-1[8:1],,,,72,,,,64,,73,,
{8}8-4[8:1]/2,8,8/3-7[8:1],3,3/6-2[8:1],6,6/1p4[8:1]*q6[8:1],1,1>5[8:1]*<5[8:1],,1,,
{16}2,6,1,7,3,5,2,6,3,5,1,7,{48}2b,3,4,5,,,,,,2/8b,7,6,5,,,,,,1b/7,,,,,,{24}3,5,4,{16}6,,8/2,,
7,3,5,3,1b,,3,7,5,7,1b,,7,3,5,3,1b,,35,,1b/7,,
2,6,4,6,8b,,6,2,4,2,8b,,{8}6h[8:2]/4,,3,5,4,6<4[8:10],
