&title=ラストリモート(Type γ)
&artist=dark phoenix
&first=0.305
&des=Tzddxg
&des_5=Tzddxg
&lv_5=14
&inote_5=(186){2},
1,2,4qq1[2:1],{8},,7,6,5,,,,{16}2h[16:3],,,4h[16:3],,,5h[8:1],,{8}6pp2[2:1],,,,,,3,4,5,,,17,,,35,,2-4[8:1],,7,,8-5[8:1],,{2}2<4[1:1],,,,{8}6,4,8h[2:1],,,,2h[2:1],,,,5q8[2:1],,,,,1,,2h[4:1],,6,5,4,3,5,4,3,2,,35,,17,,4,5,6,3,4,5,4/6h[8:3],,,3h[4:1],,6,5,4,3,5,4,6,{2}5w1[4:3]/7,,,{8},,
1/8-4[8:1],,2-5[8:1]/8,,26,7,8-5[8:1],,3>8[8:1]/8,,37,6,5,,1-6[8:1]/5-2[8:1],,1>4[8:1]/5,,1,,7,6,15,2,3/5<8[8:1],,2,3,4,5h[4:1],,7,,46,3-8[8:1]/5,,3/5-1[8:1],,25,3,4-8[8:1],,48,7,6-3[8:1]*-2[8:1],,6<1[8:1],,6,,2,3,46,7,18,2,35,,{16}4,6,4,6,3,5,3,5,1,2,3,4,{8}5b,,
4/6h[4:1],,4,6,3h[1:1]/5,,5,,6,,6,,8,,28,,5/3h[4:1],,5,3,4/6h[1:1],,4,,3,,3,,1,,17,,28,,7p4[8:7],1,7,,1,,2,,2,,3,,35,,17,,2q5[8:7],8,2,,8,,7,,7,,6,,46,,
8-4[8:1],1,28,,1-5[8:1],8,17,,36,4>1[8:1],5,4-7[8:1]/6,,4,,,1-5[8:1],8,17,,8-4[8:1],1,28,,36,5<8[8:1],4,3/5-2[8:1],,5,,,
1/7-4[8:1],8,17,,2-5[8:1]/8,1,28,,2,3-7[8:1]/5,6,3/8-5[8:1],,8,,,3-8[8:1]/5,4,35,,4/6-1[8:1],5,46,,6,1/7-3[8:1],2,4-1[8:1]/7,,4/5<4[4:5],{2},,,{4},28,,{1}4/6h[1:1],{16}1,2,3,4,8,7,6,5,{32}1,2,3,4,5,6,7,8,{8}1/5b,,
7-4[8:1],,17,,2-5[8:1],,28,,6-1[8:1],,46,,3-8[8:1],,35,6,7p4[8:3],,7,,{16}1,,,3,,,{8}46,4/6q8[2:1],,1,,1,,2,3,4-8[8:1],,6,,7-3[8:1],,17,,1-5[8:1]/8,,1/8-6[8:1],,2-4[8:1]/8,,2,,7,6,5,46,,28,,17,,24,3,46,5<8[8:1],1,2,3,{4}4-8[8:1],7,6<1[8:1],36,2>5[8:1],28,{8}8-4[8:1],2,,2,,6,5,4,35,4,5,6,7-3[8:1],,4-1[8:1]/7,,4,,8,7,26,3,4,5,4-1[8:1]/6,,,8h[4:1],,3,4,5,47,6,5,4,{1}3bqq8[1:1]/5bpp8[1:1],,
{8}17,,17,6,35,,35,,2h[4:1]/8,,8,,4/6h[4:1],,4,,28,,28,3,46,,46,,1/7h[4:1],,1,,3h[4:1]/5,,5,,2/8h[4:1],,2q5[8:7],8,2,,8,,7,,7,,6,,46,,1h[4:1]/7,,7p4[8:7],1,7,,1,,2,,2,,3,,35,,
2>5[8:1],8,2,8,7<4[8:1],1,7,2,1-4[8:1],7,1,8,{16}2h[8:1]/8h[8:1],,,3h[8:1]/7h[8:1],,,4/6,,{8}7<4[8:1],1,7,1,2>5[8:1],8,2,7,8-5[8:1],2,8,1,{16}1h[8:1]/7h[8:1],,,2h[8:1]/6h[8:1],,,35,,{8}2-5[8:1],1,28,7,6-1[8:1],5,46,3,2>5[8:1],7,2,8,{16}1h[8:1]/7h[8:1],,,3h[8:1]/5h[8:1],,,26,,{8}7-4[8:1],8,17,2,3-8[8:1],4,35,6,7<4[8:1],2,7,1,28,28,{16}1,2,3,4,
{8}5/8b,,,35,,,28,28,,,46,,,17,,,2b/8b,,,57,,,24,24,,,17,,,35,,,46,7,35,2,17,8,24,3,46,7,28,3,46,46,35,35,{16}4,5,4,5,3,6,3,6,2,7,2,7,1,8,1,8,{1}1bs5[2:1]*-5[2:1],{2}1/8h[2:1],{16}2-6[8:1],3,{8}4,2,,
1/7v5[8:1],3/5q1[8:1],17,2,3,{16}6,5,6,,2,4,{8}3-8[8:1],,3/5<1[8:1],,5,,,,2v4[8:1]/8,4p8[8:1]/6,28,7,6,{16}3,4,3,,7,5,{8}6<1[8:1],,2-6[8:1]/6,,2/5-8[8:1],,4>5[8:3]/5,,4,,,8h[4:1],,2,35,6,3/7<3[8:1],2,1,8q2[4:1],,68,,5<4[8:3],5h[2:1],,,,,,,28,,{16}6,5,6,,3,4,{8}3,25,6,17,
2v4[8:1]/8,4p8[8:1]/6,28,7,6,{16}3,4,3,,7,5,{8}6-1[8:1],,4>8[8:1]/6,,4,,,,1/7v5[8:1],3/5q1[8:1],17,2,3,{16}6,5,6,,2,4,{8}3>8[8:1],,3/7-3[8:1],,4-1[8:1]/7,,4/5<4[8:3],,5,,,1h[4:1],,7,46,3,6/2>6[8:1],7,8,1p7[4:1],,13,,4>5[8:5],4h[4:3],,,,,,,,{16}3,5,3,5,4,6,4,6,1,2,3,4,8,7,6,5,
1,7,1,7,2,8,2,8,4,3,2,1,5,6,7,8,4,6,4,6,3,5,3,5,1,2,3,4,8,7,6,5,2,4,2,4,3,5,3,5,4,6,4,6,5,7,5,7,2,3,4,5,8,7,6,5,{8}2,38,5,47,
2,2,47,{16}6,5,6,,25,,3,4,3,,6,5,6,5,7h[8:1],,3,4,3,4,2h[8:1],,8,7,6,5,{24}1,2,3,7,6,5,2,3,4,8,7,6,1,2,3,8,7,6,2,3,4,7,6,5,1,2,3,1,2,3,7,6,5,7,6,5,1,2,3,4,5,6,8,7,6,5,4,3,{
8}1pp5[2:1],,,8h[4:1],,,7,,46,5,4,3/6q1[4:1],,1,2,3,4>1[8:1],5,6,7h[4:1],,{16}8,1,2,3,{8}4,{16}7h[8:1],,,3h[8:1]/6h[8:1],,,25,,7h[8:1]/8h[8:1],,,4h[8:1]/6h[8:1],,,{8}12,
8-5[8:1],7,3-8[8:1],4,7-4[8:1],6,1-5[8:1],2,8v3[8:1],7,1p5[8:1],2,6,7,28,28,47,{16}6,5,6,,25,,3,4,3,,6,5,7,4,6b<4[8:13],
E
