&title=闲饮酣适 A Carefree Cup
&artist=HOYO-MiX
&first=0.31
&des=四哥
&lv_4=10+
&lv_5=13
&inote_4=(210){8}
1x/8xh[8:30],,,B1,B2,,B3,B4,B5
,B6,B7,,B8,,,B1,B2/B3,,B4/B5,,B6/B7,,B8/B1,,1h[8:6],,,,,,,,
8x/1xh[8:30],,,B8,B7,,B6,B5,B4
,B3,B2,,B1,,,B8,B7/B6,,B5/B4,,B3/B2,,B1/B8,,8h[8:6],,,,,,,,
4x/5xh[8:30],,,B4,B3,,B2,B1,B8
,B7,B6,,B5,,,B4,B3/B2,,B1/B8,,B7/B6,,B5/B4,,4h[8:6],,,,,,,,
5x/4xh[8:28],,,B5,B6,,B7,B8,B1
,B2,B3,,B4,,,B5,B6/B7,,B8/B1,,B2/B3,,B4/B5,,5h[8:4],,,,,,4,4,
2>5-8[8:2],,,,7<4-1[8:2],,,,3,3,3<5[4:1],,,,5,5,5-3-6z2-8[4:3],
,,,,,,,4xh[4:2]/5xh[4:2],,,,,,
1,1,
3>8-5[8:2],,,,6<1-4[8:2],,,,2,2,2<8[4:1],,,,8,8,8-2-7s3-5[4:3],
,,,,,,,1xh[4:2]/8xh[4:2],,,,,,5,5,
7<4-1[8:2],,,,2>5-8[8:2],,,,6,6,6>4[4:1],,,,4,4,4-6-3s7-1[4:3],
,,,,,,,5xh[4:2]/4xh[4:2],,,,,,
8,8,
6<1-4[8:2],,,,3>8-5[8:2],,,,7,7,7>1[4:1],,,,1,1,1-7-2z6-4[4:3]
,
,,,,,,,8xh[4:1]/1xh[4:1],,,,2,3,4,5,
1bx/8bxh[8:24],,,B1,B2,,B3,B4,B5
,B6,B7,,B8,,,B1,B2/B3,,B4/B5,,B6/B7,,B8/B1,,1,,1b/8b,,1b/8b,,,,
8bx/1bxh[8:20],,,B8,B7,,B6,B5,B4
,B3
,B2,,B1,,,B8,B7/B6,,B5/B4,,B3/B2,,B1/B8,,8h[4:2]/1h[4:2],,,,,,,,
4bx/5bxh[8:24],,,B4,B3,,B2,B1,B8
,B7,B6,,B5,
,,B4,B3/B2,,B1/B8,,B7/B6,,B5/B4,,4,,,,4b/5b,,,,
5bx/4bxh[8:24],,,B5,B6,,B7,B8,B1
,B2,B3,,B4,,,B5,B6/B7,
,B8/B1,,B2/B3,,B4/B5,,5,,4b/5b,,4b/5b,,6,3,
1-4[4:1]<6[4:6]-8[4:1],
,,3,4,,3,,4,,4,5,4,,5,4,3,,,4,5,6,7,8,1,,5b/8b,,5b/8b,,1/4,,
8-5[4:1]>3[4:6]-1[4:1],,,6,5,,6,,5,,5,4,5,,4,,5/1,,6/2,,7/3,,8/4,,1/8,,1bx/8bx,1x/8x,1bx/8bx,,7,2,
4-1[4:1]<7[4:6]-5[4:1],
,,2,1,,2,,1,,1,8,1,,8,1,2,,,1,8,7,6,5,4,,8b/5b,,8b/5b,,4/1,,
5-8[4:1]>2[4:6]-4[4:1],,,7,8,,7,,8,,8,1,8,,1,,8/4,,7/3,,6/2,,5/1,,4/5,,4bx/5bx,4x/5x,4bx/5bx,,,,
1x/8xh[8:24],,,B1,B2,,B3,B4,B5
,B6,B7,,B8,,,B1,B2/B3,,B4/B5,,B6/B7,,B8/B1,,1,,1b/8b,,1b/8b,,,,
8x/1xh[8:30],,,B8,B7,,B6,B5,B4
,B3,B2,,B1,,B8,,B7/B6,,B5/B4,,B3/B2,,B1/B8,,8h[8:6],,,,,,,,
4x/5xh[8:24],,,B4,B3,,B2,B1,B8
,B7,B6,,B5,,,B4,B3/B2,,B1/B8,,B7/B6,,B5/B4,,4,,4b/5b,,4b/5b,,,,
5x/4xh[8:
8],,,B5,B6,,B7,,B8/B1,,B2/B3,,B4/B5,,B6/B7f/B8,,
A7/A8/B7/B8/E7/E8,,A2/A1/B2/B1/E3/E2,,A3/A4/B3/B4/E3/E4,,A6/A5/B6/B5/E7/E6,,Chf[4:2],,,,,,8,1,8/1,,7/2,,6/3,,5/4,,,,C,,Cf,
&inote_5=(210){8}
7/2,,,6/1,6/1,,6,1,6,1,6,,1/8,,,1,1-3-5-7[8:6],,1/6,,3/5,,5/8,,7h[2:1],,,,,,,,
6/3,,,7/4,7/4,,7,4,7,4,7,,4/5,,,4,4-2-8-6[8:6],,4/7,,2/8,,8/5,,6h[2:1],,,,,,,,
2/7,,,3/8,3/8,,3,8,3,8,3,,8/1,,,8,8-6-4-2[8:6],,8/3,,6/4,,4/1,,2h[2:1],,,,,,,,
3/6,,,2/5,2/5,,2,5,2,5,2,,5/4,,,5,5-7-1-3[8:6],,5/2,,7/1,,1/4,,3h[2:1],,,,,,3,3,
3-7-2-5-8-3[8:5],,,7/6,2/6,5/6,8/6,3/6,3-6-2[8:2]/7,3/7,3/7,6/7,2/7,,2,7,2-4-7-1-5-8-3[8:6],,,4,7,1,5,8,3h[2:1],,,,,,6,6,
6-2-7-4-1-6[8:5],,,2/3,7/3,4/3,1/3,6/3,6-3-7[8:2]/2,6/2,6/2,3/2,7/2,,7,2,7-5-2-8-4-1-6[8:6],,,5,2,8,4,1,6h[2:1],,,,,,2,2,
2-6-3-8-5-2[8:5],,,6/7,3/7,8/7,5/7
,2/7,2-7-3[8:2]/6,2/6,2/6,7/6,3/6,,3,6,3-1-6-4-8-5-2[8:6],,,1,6,4,8,5,2h[2:1],,,,,,7,7,
7-3-6-1-4-7[8:5],,,3/2,6/2,1/2,4/2,7/2,7-2-6[8:2]/3,7/3,7/3,2/3,6/3,,6,3,6-8-3-5-1-4-7[8:6],,,8,3,5,1,4,7h[4:1],,,,8,3,7,4,
2b<7b[4:11]/7b,,,6/1,6/1,,6,1,6,1,6,,1/8,,,1,1-3-5-7[8:6],,1/6,,3/5,,5/8,,7,,7bx/2bx,,7bx/2bx,,,,
3b<6b[4:11]/6b,,,7/4,7/4,,7,4,7,4,7,,4/5,,,4,4-2-8-6[8:6],,4/7,,2/8,,8/5,,6,,6bx/3bx,6x/3x,6bx/3bx,6x/3x,6x/3x,6x/3x,
7b>2b[4:11]/2b,,,3/8,3/8,,3,8,3,8,3,,8/1,,,8,8-6-4-2[8:6],,8/3,,6/4,,4/1,,2bxh[4:2],,,,,,,,
6b>3b[4:11]/3b,,,2/5,2/5,,2,5,2,5,2,,5/4,,,5,5-7-1-3[8:6],,5/2,,7/1,,1/4,,3bxh[4:2],,,,,,7,2,
1h[8:3]/8h[8:3],,,,7/2,,6/3,,5/4,,8x/1x,8x/1x,8x/1x,,2,2,2-4-7-3-5-8[8:5],,,4,7,3,5,8h[8:5],7h[2:1],,,,,,2/7,,
8h[8:3]/1h[8:3],,,,2/7,,3/6,,4/5,,1x/8x,1x/8x,1x/8x,,4-6-2-8[4:3]/5-3-7-1[4:3],,4/5,,6/3,,2/7,,1/8,,1x/8x,,1x/8x,1x/8x,1x/8x,,6,3,
4h[8:3]/5h[8:3],,,,6/3,,7/2,,8/1,,5x/4x,5x/4x,5x/4x,,3,3,3-1-6-2-8-5[8:5],,,1,6,2,8,5h[8:5],6h[2:1],,,,,,3/6,,
5h[8:3]/4h[8:3],,,,3/6,,2/7,,1/8,,4x/5x,4x/5x,4x/5x,,1-7-3-5[4:3]/8-2-6-4[4:3],,1/8,,7/2,,3/6,,4/5,,4x/5x,,4x/5x,4x/5x,4x/5x,,,,
7/2,,,6/1,6/1,,6,1,6,1,6,,1/8,,,1,1-3-5-7[8:6],,1/6,,3/5,,5/8,,7,,2bx/7bx,,2bx/7bx,,,,
6/3,,,7/4,7/4,,7,4,7,4,7,,4/5,,4,,4-2-8-6[8:6],,4/7,,2/8,,8/5,,6h[2:1],,,,,,,,
2/7,,,3/8,3/8,,3,8,3,8,3,,8/1,,,8,8-6-4-2[8:6],,8/3,,6/4,,4/1,,2,,2bx/7bx,,2bx/7bx,,,,
3/6,,,2/5,2/5,,2,,5,,5,,5/4,,6/3,,8-5-7[4:1]/1-4-2[4:1],,8/1,5/4,7-5-8[4:1]/2-4-1[4:1],,5/4,1/8,1xh[2:1]/8xh[2:1],,,,,,,1/8,1/8,,
{32}E8/E2,B7/B2,B6/B3,E6/E4,{16},,4/5,,,,{32}E6/E4,B6/B3,B7/B2,E8/E2,{8},1/8,,{32}E8/E2,B7/B2,B6/B3,E6/E4,{8},Cf,
