&title=Breach of Faith
&artist=Supire feat.eili
&first=0.12
&lv_5=14
&des_5=G.S.S.「perfidulo」
&inote_5=
(172){4},,,,{32}1V75V31v7-3v5[4:13],
B1,C,B5,{1},{4},{16},,{2}5xh[4:1],
{1}3xh[2:1],
{2},1xh[4:1],
{32}8-2-4-6-8v2-6v4[4:13],B8,C,B4,{4},,,{16},,{4}2xh[4:1],
{2},{4}4x,
{1}6xh[2:1],
2xh[4:1],
6pp2[4:5]/2pp6[4:5],
,3qq7[4:5]/7qq3[4:5],
,{4}8<2v4[2:5],
{2},{4}1xqq6[4:3],
{1},6v8[2:1],
{16}A2,A3,A4,A5,A1,A8,A7,A6,B2,B3,B4,B5,B1,B8,B7,B6,
{8}2-4[8:1],{4},{8}6-8[8:1],{4},{8}2,2,
{16}6,4,{8}5h[8:1],{16}3,5,{8}4h[8:1],6h[8:1],{16}1,2,{8}3/8,6/5,
7-5[8:1],{4},{8}3-1[8:1],{4},{8}7,7,
{16}7/2,8/3,{8}1/4,{16}4/1,3/8,{8}2/7,2/6,{16}4,8,{8}4,6/2,
2>4[8:1],{4},{8}6<8[8:1],{4},{8}2,2,
{16}3,4,{8}5/1,{16}1,8,{8}7/3,1/5,{16}3,7,{8}3,1/5,
6/2,2/6,3/7,3/7,8/4,8/4,{16}1/5,8/4,7/3,6/2,
{1}5<7p1[2:1]/1>3p5[2:1],
{4}7-5[8:1],{8}3,3-1[8:1],,7,{16}5,4,5,4,
{8}7h[8:1],{16}1,8,{8}1,6h[8:1],{16}4,5,{8}4,5h[16:1]/1h[16:1],4h[16:1]/8h[16:1],
{4}7/3-1-5-7[2:1],{8}5xh[16:1],5xh[16:1],1xh[16:1],1xh[16:1],{4},{8}2-5[8:1],
{16}3,1,{8}2,6,6-1[8:1],{16}7,5,{8}6,3,
5/1,7/3,2/8,4/6,{2}5V31V75>4v6>5[2:1],
{4},,{8}2/6,{16}1,7,{8}1,2/6,
3/5,2/6,4/8,2/6,1/7,3/5,2/6,{16}2,3,
{8}4/8,2/6,{16}6,7,8/4,1,2,1,8,7,6/2,3,4,5,
{4}6/2x,1-3[8:1],{8}1/5-7[8:1],4,{4}5,
{8}3h[8:1],{16}5,4,{8}5,6h[8:1],{16}4,5,{8}4,3h[16:1]/7h[16:1],4h[16:1]/8h[16:1],
{4}1h[16:1]/5-3-6-2-7-1[2:1],{8}6xh[16:1],2xh[16:1],7xh[16:1],1xh[16:1],{4},{8}1/8,
{16}2,7,{8}2,{16}6,3,5,4,{8}5,{16}4,5,{8}4,
6/3,5/4,2h[16:1],7h[16:1],{4}1-3-8-4-7-5[2:1],{8}8xh[16:1],4xh[16:1],
7xh[16:1],5xh[16:1],{4},{8}4/8,{16}3,2,{8}1/5,8/4,
{16}5,6,7,8,{8}1/5,3/7,{16}2,1,{8}8/4,{16}4,5,6/2,7,
8/4,7/3,6/2,5/1,4/8,7,6,5,4/6,3/5,4/2,1/3,2,1,8,7,
{4}6/2x>4-1-5[2:1],{8}7<6v5[4:1],8,{4},,7q4q1>7[2:3],
A8,C,8-4[4:1],
{2},1>5v3[1:1],
{4}8-6[8:1],8-2[8:1],,7<5-8-4[4:3],
7/3,2<8[8:1],{2}2v4[8:1],
{4}2x>5qq1[2:1],8<5[4:1],{2},{4}6q4>8[2:1],
5<8[4:1],{2},{4}3p5<1[2:1],
4>1[4:1],,,{16}7,
5,7,5,6,4,6,4,5,3,4,4,{4}4,
{16}2,4,2,4,3,5,3,5,4,6,5,5,{4}5,
{16}7,5,6,6,2,4,3,3,5,4,6,3,{4}5,
{16}2,4,3,3,7,5,6,6,4,5,3,6,{4}4,
6v4[4:1],{8}6/7V13[4:1],8,{2}7x,
{4}3v5[4:1],{8}3/2V86[4:1],1,{2}2x,
{8}7-5[8:1],{16}8,1,{8}7,3-1[8:1],{16}4,5,{8},7,5,
{4}3qq8[2:1],7<4[4:1],{2},{1}6q4q2[2:3]/2q8q6[2:3],
,7p1p3[2:3]/3p5p7[2:3],
,6<1pp5[2:3],
1<6[2:1],
3>8qq4[2:3],
8>3[2:1],
{4}6-8[8:1],5,{8}2-4[8:1],1,{4}2,
5-7[8:1],4,{8}1-3[8:1],8,{4}1,
6<8[8:1],5,{8}2>4[8:1],1,{4}2,
7<5[8:1],8,{8}3>1[8:1],4,{4}3,
6h[8:1]/2h[8:1],3h[8:1]/7h[8:1],4h[8:1]/8h[8:1],3h[8:1]/7h[8:1],
{8}2/6,3,4/8,7,2/6,1,8/4,5x,
{16}1-5[4:7],1-5[16:27],1-5[8:13],1-5[16:25],1-5[2:3],1-5[16:23],1-5[8:11],1-5[16:21],1-5[4:5],1-5[16:19],1-5[8:9],1-5[16:17],1-5[1:1],1-5[16:15],1-5[8:7],1-5[16:13],
1-5[4:3],1-5[16:11],1-5[8:5],1-5[16:9],1-5[2:1],1-5[16:7],1-5[8:3],1-5[16:5],1-5[4:1],1-5[16:3],1-5[8:1],1-5[16:1],1,1,1,1,
{1}1b/Cf/B1f/B5f,
5v8<6p1[1:2]/4v1>3q8[1:2],
,{2},C,
{4}2-4[8:1],1-5[8:1],3h[4:1],B7/E7/E8/A7,
{16}8,2,8,4,2,4,8,2,8-4[8:1],4,2,4,{4}8,
7-5[8:1],8-4[8:1],6h[4:1],A2/B2/E3/E2,
{16}1,7,1,5,7,5,1,7,1-5[8:1],5,7,5,{4}1,
2pp5<7[2:1],8>2[4:1],,,{16}6,
4,6,2,4,2,6,4,6v4[8:1],2,4,2,{4},{16}6,
{8},{16}3h[16:1],{8}5,{16}2,4,{4}3,{16}3,{8},{16}6h[16:1],
{8}4,{16}7,5,{4}6,{16}8/2,7,6,5,4/8,1,2,3,
{4}4x-2[8:1],1-5[8:1],3h[4:1],A7/E7/E8/B7,
{16}3,5,3,5,7,5,3,5,3v1[8:1],5,3,7,{4}3x,
7-5[8:1],4-8[8:1],6h[4:1],A2/E3/B2/E2,
{16}6,4,6,4,2,4,6,4,6v8[8:1],4,6,2,{4}6x,
3p1[2:1],8<4[4:1],,,{16}7,
4,6,3,5,2,6,4,5v7[8:1],3,4,2,{4}5x,
{2}7<5-8[8:1]/3>1-4[8:1],5v7[8:1]/1v3[8:1],
2p5[8:1]/6p1[8:1],{8}2h[16:1]/6h[16:1],3h[16:1]/7h[16:1],4h[16:1]/8h[16:1],5h[16:1]/1h[16:1],
{2}4-2-5-1[2:1]/8-6[8:1],{4}7-3[8:1],7x,
{2}7-5-8-4[8:3]/3-1[8:1],{4}2xh[8:1],{16}2,4,3,5,
4>1[8:1],{8},{16}5,{8}5,6,{4}7V53[8:1],1xh[8:1],
{16}2x-4<6[8:1],{8},{16}7,{8}7,1,{16}2/8,{8},{16}7h[16:1],6,4h[16:1],{8}5,
5h[16:1]/2h[16:1],4h[16:1]/7h[16:1],6q1[4:1],1,3,5,{4}3xh[8:1],
{8}7-5>4[8:1]/1-3<4[8:1],8,{4},{8}2/6,{16}4,4,4,4,{8}4,
3/5,{16}7h[16:1],6,,3,4,3,,5h[16:1],2,6,{8}6/3,2/7,
1pp4[4:1]/8<5[4:1],{4},,{8}5xh[16:1]/4xh[16:1],3h[16:1]/6h[16:1],2h[16:1]/7h[16:1],
{4}1/8v6>3[2:1],1v3>1[4:1],{2},{4}2pp5[8:3],
1<6[8:1],,{16}6h[16:1],4h[16:1],5h[16:1],3h[16:1],
4,2,{8}4,{16}6,5,6,7,{8}6,{16}2,1,2,3,{8}2,
{16}5,4,{8}5,{16}3h[16:1],4,,6h[16:1],{8}5,{16}4h[16:1],5,,6h[16:1],{8}3,
7/2,{16}6,4,{8}6,{16}3,5,{8}3,{16}7h[16:1],4,,5h[16:1],{8}2,
{16}6,3,6,4,5,4,{8}4/5,{24}1,8,1,8,1,8,{12}2xh[24:1]/7xh[24:1],3xh[24:1]/6xh[24:1],4xh[24:1]/5xh[24:1],
{2}3v1[8:1]/6v8[8:1],7V15[8:1]/2V84[8:1],
{4}4xh[8:1]/5xh[8:1],6h[8:1]/3h[8:1],{8}5h[16:1]/4h[16:1],6h[16:1]/3h[16:1],7h[16:1]/2h[16:1],8h[16:1]/1h[16:1],
{1}1<7q4<5v2>3[2:5]/8>2p5>4v7<6[2:5],
,,{16}B6,
B2,B7,B3,B5,B1,B8,B4,E7,E1,E5,E3,E8,E2,E6,E4,
{1}C,
