&title=プレステ・ジョアンの黄金境
&artist= 上海アリス幻樂団
&first=0.13
&des=NaOH
&clock_count=4
&lv_5=13+
&inote_5=(165),,,,,,,,
{8}6h[4:1],5h[4:1],,,7h[4:1],8h[4:1],,,6h[4:1],5h[4:1],,,8,7,6,5,
3h[4:1],4h[4:1],,,2h[4:1],1h[4:1],,,3h[4:1],4h[4:1],,,1,2,3,4,
5,6,7,8h[8:3],E4,E3,E2,E1,5,6,7,8h[8:3],E4,E3,E2,E1,
5,6,7,8h[8:3],E4,E3,E2,E1,7,7,6,5,4-8b[8:1],,2bpp1[8:2]/4b,,
2x/7x,,7-4[8:1],,73,,2,3^6[8:1]/6,,37,,8h[4:1],,5,4qq5[4:1],,
4x/6x,,8<5[8:1],,18,,2,4>1[8:1]/3,,5-1[8:1]/4,,58,7,6,5q6[8:3],,
2h[8:3]/5,,,,1,2,34,45,6>2[4:1]/5,,2<6[4:1]*V86[4:1],,C,,,,
34,2,34,5,6h[8:1],5h[8:1],4h[8:1],3h[8:1],1<5[4:1],,5<1[4:1],,C,,{16}5x,4x,3x,2x,
{8}
1x-6[8:1],8,7,,5-2[8:1],8-6b[12:1],5,8>3[8:1],
,8<5[8:1]/7,,8-4[8:1]/1,,78,6h[4:1],,
5x-1[8:1],4,3,,7-5[12:1],4-8b[8:1],7,4>1[8:1],
,4<7[8:1]/5,,4p8[8:1]/3,,46,7p6[8:3],,
3h[8:3]/7,,,,4,3,21,18,
7V13[4:1]`7!>3[4:1],,3V57b[4:1]*<7b[4:1],,C,,,,
65,7,65,4,3h[8:1],4h[8:1],5h[8:1],6h[8:1],7>3[4:1],,5h[4:1],,,,{16}6,5,6,5,
{8}
7x^1^7[4:1],1,7<5[8:1]*<5[8:1],,3-7b[8:1],,34,,
2x^8^2[4:1],8,2>4[8:1]*>4[8:1],,6-2b[8:1],,65,,
7x-2[8:1],2^7^5[4:1]*^7^5[4:1],7,,3-7b[8:1],,34,,
2x-7[8:1],7^2^4[4:1]*^2^4[4:1],2,,6-2b[8:1],,65,,
7x<4<7[4:1],4,7,,3>8[8:1]*-7b[8:1],,3b,,
2x>5>2[4:1],5,2,,6<1[8:1]*-2b[8:1],,6b,,
7x<4<7[4:1],4,7-3[8:1]/3-7[8:1],,3bv1b[8:1]*v5b[8:1],,,,
2x>5>2[4:1],5,2-6[8:1]/6-2[8:1],,6bv8b[8:1]*v4b[8:1],,,,
{16}3x,,3x,,4,,2,,35,,6,,6,,57,,
8,,6,5,6,,35,,2,,3,4,3,,26,,
1,,28,,7,,68,,6,,57,,5,,46,,
3,,3,4,3,,25,,6,5,7,,18,,,,
{8}
6h[8:1],5h[8:1],4h[8:1],3h[8:1],A6,A5,A4,A3,
6h[8:1],5h[8:1],4h[8:1],3h[8:1],A1,A2,A3,A4,
6h[8:1],5h[8:1],4h[8:1],3h[8:1],A6,A5,A4,A3,
6h[8:1],5h[8:1],4h[8:1],3h[8:1],7,7,18,18,
7x-5[12:1],1,7,,4-2[8:1],5-1[8:1],4,5<2[4:1],
,2<5b[4:1],,C,{16}4,,4,3,2,,15,,
{8}2x-4[12:1],8,2,,5-7[8:1],4-8[8:1],5,4>7[4:1],
,7>4b[4:1],,{16}E5,E6,E7,,,,8<5[8:1],,,,
8bq1[8:3]/1b,,,,C,,,,5,,5,,6,,7,,
1p8[4:1]/8,,,,8<3[4:1],,,,C,,,,8,7,6,5,
3-1[12:1]/4,,2,,4-8[8:1],,5,,3-7[8:1],,2,,3,,5,,
6,5,6,5,6,,47,,1-5[8:1],8,2,7,1b,,,,
{8}
2x-4[12:1],6,2/5-1[12:1],,5-7[12:1],4-8[8:1],5,4>7[4:1],
,7V14b[4:1],,C,{16}5,,5,6,7,,84,,
{8}7x-5[12:1],3,7/4-8[12:1],,4-2[12:1],5-1[8:1],4,5<2[4:1],
,2V85b[4:1],,C{16}E5,E4,E3,,,,1>4[8:1],,,,
1bp8[8:3]/8b,,,,C,,,,4,,4,,3,,2,,
8q1[4:1]/1,,,,1>6[4:1],,,,C,,,,1,2,3,4,
6-8[12:1]/5,,7,,5-1[8:1],,4,,6-8[8:1],,7,,6,,4,,
5,6,5,6,4,5,4,5,3,4,3,4,2-6[8:1],,,,
{8}2bV46v3[4:11]*V86v1b[4:11]/Cf,,,,,,,,,,,,,,,,,,,,,,,,,,,,,,,,
7,6,5h[4:2],,E2/B2,,B3/E4,,2,3,4h[4:2],,E8/B7,,B6/E6,,
7,5,6,3,4,2,5,1-5[4:2],,,,,E7,E8,E1,,
5,4,5-7[8:1],,2-4[8:1],,D5,,3,4,3-1[8:1],,6-4[8:1],,A3,,
6,4,8,3,5,1,8<5[8:1],2,,4,3,2,1,,26,,
1,8,1-3[8:1],,6-8[8:1],,D1,,7,8,7-5[8:1],,2-8[8:1],,A7,,
3,5,1,6,4,8,6q7[8:3],1>4[4:1],,,,,5,5,4,4,
{16}
36,,2,4,1-5[8:1],,,,6<1[8:1]/1>4b[8:1],,,,6b/1b,,,,
63,,7,5,8-4[8:1],,,,3>8[8:1]/8<5b[8:1],,,,3b/8b,,,,
24,,3,4,2-6[8:1],,,,7V15[4:1]/2,,,,37,,4b<2[4:1],,,,
2,,3,,4,,5-2[8:1]*-8[8:1],,46,,5b,,,,
37,,4,5,4-8[8:1],,,,7<4[8:1]/4>1b[8:1],,,,7b/4b,,,,
26,,5,4,5-1[8:1],,,,2>5[8:1]/5<8b[8:1],,,,2b/5b,,,,
37,,4,5,3-7[8:1],,,,6V48[4:1]/3,,,,26,,1b<3[4:1],,,,
,,,,,,7,,68,,15,,24,,
3,,2,4,2v5[8:1]*v7[8:1],,,,2bv1b[8:1]*v3b[8:1],,,,C,,,,
6,,7,5,7v4[8:1]*v2[8:1],,,,7bv8b[8:1]*v6b[8:1],,,,C,,,,
2,,3,4,3-5[12:1],,,,7-1[12:1]/3b,,,,27,,3V51[4:1],,
,,6,,7,,8,,8-6[8:1]*-4[8:1],,,,8b,,,,
7,,6,5,6v1[8:1]*v3[8:1],,,,6bv5b[8:1]*v7b[8:1],,,,C,,,,
2,,3,4,3v8[8:1]*v6[8:1],,,,3bv4b[8:1]*v2b[8:1],,,,C,,,,
7,,6,5,6<3[4:1],,,,6b,,,,4,,4pp4[8:5]*qq4[8:5],,,,,,,,,,,,,,,,,,
{8}
7x-3[8:1],3-7-5[4:1],7,,4-8[8:1],,34,,
3x-5[8:1],5-1-7[4:1],3,,6-2[8:1],,56,,
8x-5[8:1],5-8-3[4:1],8,,4-1[8:1],,45,,
2x-5[8:1],5-2-7[4:1],2,,6-3[8:1],,16,,
7x-3[8:1],2,7<3[4:1]/3<7[4:1],,7x^1b[8:1]/3x^1b[8:1],,,,
2x-6[8:1],7,2>6[4:1]/6>2[4:1],,2x^8b[8:1]/6x^8b[8:1],,,,
7x-3[8:1],2,7^5^7[4:1]/3^1^3[4:1],,7x^1b[8:1]/3x^5b[8:1],,,,
2x-6[8:1],7,2^4^2[4:1]/6^8^6[4:1],,2x^8b[8:1]/6x^4b[8:1],,,,
Cf,
