&title=Sendan Life(Katagiri Bootleg)
&artist=かたぎり / 花守ゆみり
&first=0
&des=moying
&clock_count=4
&lv_5=15+
&inote_5=(260){1},,,,
{2},{8},
{16}2b,6b,2b,6b,2b,6b,
{8}3b-1[8:1]/7b-5[8:1],,37,,48,4/8-4[8:1],,8/6-2[8:1],,6/1-5[8:1],,18,,37,E2/A1/A2/D2/B1/B2/E6/A6/A5/D6/B5/B6,,
{8}4-2[8:1]/6-4[8:1],,4-8[8:1]/6,,2,2-6[8:1],,2/8-4[8:1],,28,,
{24}1,2,3,4-8[8:1],5,6,7,8,1,{32}2b,E4/E5/B4f,Cfh[384:1],B8f/E1/E8,,,,,
{8}1-3[8:1]/7-5[8:1],,17,,1-4[8:1]/5,5,16,7,
{8}1^3[8:1]/6,7,18,,1-5[8:1]/8,8,17,6,
{8}1-3[8:1]/6,7,18,,1-4[8:1]/5,6,17,8,
{8}1^3[8:1]/7,,15,,1-4[8:1]/5-8[8:1],6,1/5,,
{8}8x^6[8:1]/2-5[8:1],,82,,8-5[8:1]/4,4,83,2,
{8}8-6[8:1]/3,2,81,,8-4[8:1]/1,1,82,3,
{8}8^6[8:1]/3,2,81,,8-5[8:1]/4,3,82,1,
{16}68,,1,3x,1,,5x,,7x,5,6,5,6,3,4,3,
{4}4b^6b[2:1],2,2,2,
{4}3/7h[4:1],3,3/5h[4:1],3,
{4}4/5-7p3[2:1],4,4,4,
{4}52,51,58,{8}57,5,
{4}5^3[8:1]/7,7,7/5p1[8:1],7,
{4}6h[4:1],5h[4:1],4h[4:1],{8}3,3,
{4}4-6[8:1],2-4[8:1],7h[4:1],5,
{4}56,28,{8}3/4-8[8:1],4,3b/4,,
{8}7-5[8:1]/2,,1h[4:1],,4^6[8:1],,3,3,
{8}4^2[8:1],,8h[4:1],,1-3[8:1],,6,6,
{8}4,7,4,6,4,5,4,3,
{8}4/2q6[4:1],,1,1,1h[4:1],,8,8,
{8}27,6,3>7[4:1]/5,,7>3[4:1],,5,,
{4}6h[4:1],4h[4:1],2h[4:1],{8}3,3,
{16}6b,5,6,,7h[16:1],,3,,5b,3,4,3,5,,2,,
{16}3b,,6,4,5,,5,,{4}2-6[8:1],6<3>6[1:2],
{8}5b,,,4,,,5h[4:3],,,,,,,,,,
{8}3x>6<3[4:7],,,4,,,4h[2:1],,,,,,4,,5,,
{8}6<3>6[4:7],,,4,,,5,,,,,,5,,4,,
{24}A3,D3,A2,D2,A1,D1,{16}A8,D8,A7,D7,{8}A6,B5,E4,D3,
{2}5-1[4:3],5x-1b[8:1],
{4}2x-7[8:1],6-3[8:1],1-4[8:1],5-8[8:1],
{4}2-6[8:1],7-3[8:1],1-5[8:1],{8}7,7,
{4}7-3[8:1],6-2[8:1],5-1[8:1],4-8[8:1],
{4}3-7[8:1],2-6[8:1],1-5[8:1],{8}8,8,
{8}46,46,3,3,24,24,1,1,
{16}7,8,7,,6,,6,,2,4,2,,3,,3,,
{16}8,4,8,4,7,3,7,3,{24}6,7,8,1,2,3,6,7,8,1,2,3,
{4}4-8b[8:1]/5-1b[8:1],45,3-8[8:1]/7-4[8:1],3b/7b`E3f/E7f`B2f/B6f`Cf`B1f/B5f`E1f/E5f,
{8}1x-4[8:1]/6x,,1x/8x,,1-3[8:1]/5,,4/1,4,
{8}1-5[8:1]/4,{16}6,7,{8}1/8,8,6/1^3[8:1],,4/1-5[8:1],,
{16}1-4[8:1]/4,5x,6,7,{8}1-5[8:1]/8,,1-3[8:1]/6,,1-5[8:1]/4,4,
{8}1^3[8:1]/6,7,1-4[8:1]/6,6,{16}1-5[8:1]/8,7,6,,{8}1/8,,
{4}4-2[8:1]/6p2[8:1],6-1[8:1]/4,6-4[8:1]/8-5[8:1],
{4}6/8-3[8:1],2-6[8:1]/8-6[8:1],2^5[8:1]*V46[8:1]/8,2,{8}8,7,
46,3,{4}2-4[8:1]/1-5[8:1],2-6b[8:1]/1-7b[8:1],12,
{16}3,5,4,5,4,,7h[8:1],,5,5,6h[8:1],,{24}7b,8b,1b,2b,3b,4b,
{8}8b-5[8:1]/5b,,8/1,,8-6[8:1]/4,,5/8,5,
{8}8-4[8:1]/5,{16}3,2,{8}8/1,1,3/8^6[8:1],,5/8-4[8:1],,
{16}8-5[8:1]/1,2,3,,8-4[8:1]/3,2,1,,{8}8-6[8:1]/3,,8-4[8:1]/5,5,
{8}8^6[8:1]/3,2,8-5[8:1]/5,5,{16}8-4[8:1]/2,3,4,,{8}8/1,,
{4}2-6[8:1]/6,2/8-4[8:1],8/5-1[8:1],5/7-3[8:1],
{4}7/8-4[8:1],8/6-2[8:1],65,
{8}3,3,{16}6,5,7,,3,,5/2h[8:1],,8x,2,7,3,6,,4h[8:1],,
{16}7b,5,6,4,5,3,4,2,
{32}8b,7,6,5,4,3,2,1,8,7,6,5,4,3,2,1,
{8}8b-6[8:1],,82,,8-5[8:1]/4,4,83,2,
{8}7-5[8:1]/3,2,71,,8-4[8:1]/1,1,82,3,
{8}7-5[8:1]/3,2,71,,8-4[8:1]/4,3,82,1,
{8}7-5[8:1]/2,,74,,8-5[8:1]/4-1[8:1],3,8/4,,
{8}2-5[8:1]/7-4[8:1],,27,,1-5[8:1]/6,6,17,6,
{8}2-4[8:1]/6,7,28,,1-5[8:1]/8,8,17,6,
{8}2-4[8:1]/6,7,28,,1-5[8:1]/5,6,17,8,
{16}31,,8,6x,8,,7xh[8:1],,5x,6,4,5,3,4,2,5,
{1}8bh[1:1],
{8}6,,,35,,,24,,
{1}1h[1:1]/3,
{8}3,,,24,,,35,,
{4}4/6h[2:1],8,5h[2:1],8,
{8}6h[2:1],,1h[8:1],,4h[2:1],,7^6^7^5[4:1],,
{4},3x^2^4[4:1],,{8}5,5xw1b[8:5],
{1},
{8}2^4[8:1]/8,,7/A3,,8/5^3b[8:1],,1/A4,1,
{8}8/2^4[8:1],,8/A3,,7/5^3b[8:1],,7/A4,7,
{8}7/2^4[8:1],8,7/A3,1,8/5^3b[8:1],1,8/A4,8,
{8}7/2^4[8:1],,1/A3,1,1/5^3b[8:1],,7/A4,7,
{8}7/2^4[8:1],8,1/A3,,7/5^3b[8:1],,7/A4,1,
{8}8/2^4[8:1],,8/A3,,7/5^3b[8:1],,1/A4,8,
{8}7-3[8:1],6,8-4[8:1],1,5-1[8:1],6,2,3,
{4}4^1[8:1],4qq6[8:3],7^2[16:3],7,
{4}5xb^8^5b[4:7],B1/E1/E2/A1/D2,3,B1/E1/E2/A1/D1,4,B1/E1/E2/A1/D2,3,B1/E1/E2/A1/D1,
{4}4b^1^4b[4:7],B7/E8/E7/A7/D7,5,B7/E8/E7/A7/D8,6,B8/E1/E8/A8/D8,5,B8/E1/E8/A8/D1,
{4}5b^8[4:3],B1/E1/E2/A1/D2,3,B1/E1/E2/A1/D1,
{4}4^1[4:3],B8/E1/E8/A8/D8,6,B8/E1/E8/A8/D1,
{4}5v6-8b[8:3],2,3-5-1[8:3]*-5-1[8:3],3,
{4}7-3[8:1],2-6[8:1],4w8b[8:1],{32}B4,Cf,B8,A8,,,,,
{8}26,2,34,2,46,7,35,1,
{8}7h[4:1]/8,,6,6-2[8:1],,4,5,5,
{8}6,8,35,1,47,7,15,2,
{8}3-7[8:1]/5,,34,5-1[8:1],,56,6,7,
{8}28,28,7,7,15,15,3,3,
{16}2,4,3,5,4,6,8,5,1,4,2,1,3,8,2,7,
{32}1,2,3,4,5,6,7,8,1,2,3,4,5,6,7,8,
{32}1b,2b,3b,4b,5b,6b,7b,8b,1b,2b,3b,4b,5b,6b,7b,8b,
{32}A1/D2f/E2,A2/D3f/E3,A3/D4f/E4,A4/D5f/E5,A5/D6f/E6,A6/D7f/E7,A7/D8f/E8,A8/D1f/E1,
{4}Cf/B1f/B2f/B3f/B4f/B5f/B6f/B7f/B8f,1bxw5b[8:1]/8bxw4[8:1],1bx/8bx,
{8}2x-5[8:1]/7x-1[8:1],,7-3[8:1]/2,,47,,{16}2,2,4,,
{8}5,4/7h[8:1],{16}5,6,5,,{32}7x^4[8:1],8x,1x,2x,{8},7/3-1[8:1],,
{8}3/5x-1[8:1],4,3-7[8:1]/5,2,3/6^3[8:1],,{16}2,1,8,7,
{8}6-2[8:1],6,7,7,8w4[8:1],,8,,
{4}2-4[8:1]/5x-7[8:1],2-6[8:1]/5,2/8^3[8:1]*^5[8:1],
8-4[8:1],8^3[8:1]/5x-1[8:1],58,47,{8}35,4,
57,8,12,,{24}6,5,4,{8}4x,3h[16:1]/5,5,
{24}2,3,4,{8}5,5h[8:1]/7,,
{16}8,4,8,4,
{32}8,1,2,3,48,15,26,37,
{8}4b^1[8:1]/8b^5[8:1],,4-8[8:1]/8,,4x/2x-6[8:1],,
1,8,47,{16}6,4,5^2[8:1],3,{8}4,4-8[8:1],,45,,
{8}26,{24}1,7,8x,{8}7h[16:1],2,35,4,6,{24}2,4,3,5,,,7,5,6,{8}5x,48,
{16}1bxw5[8:1]/5bx,48,37,26,{4}1bx`C,
{4}7-3[8:1]/3,7/1-5[8:1],1/4-8[8:1],4/2-6[8:1],
{4}2/1-5[8:1],1/3-7[8:1],34,{8}5,6,
{8}6h[8:1],{16}3,5,4h[16:1],,46,,3,4,2,,2,,8h[16:1],,
{24}2bx,3,4,5,6,7,8,1,2,3,4,5,8bx,7,6,5,4,3,2,1,8,7,6,5,
{8}4bx-8[8:1],3x,2h[4:1]/4,,1,8,37,4,
{8}5/6h[4:1],,8,8,5,2,13,4,
{8}6,5,47,8,2^4[8:1],,5-7[8:1],,
{8}3,,4,,57,6,45,3,
{8}28,1,17,8,58,4,3,4,
{8}25,36,4/7h[4:1],,8,7,6,5,
{8}24,3,35,,57,6,46,,
{4}2h[4:1]/4,8h[4:1],{8}6,6b,,7,
{8}3b^5[8:1]/7b,2,8p4[8:1],1,2b-8[8:1],3,5^8[8:1],4,
{8}3b-6[8:1],2,7-1[8:1],8,4b^1[8:1],5,6,7,
{8}6bx^4[8:1],7x,1q5[8:1],8,7b-1[8:1],6,4^1[8:1],5,
{8}6b-3[8:1],7,2-8[8:1],1,5b^8[8:1],4,3,2,
{8}1bx-6[8:1],2,1x/3^8[8:1],4,3bx/5bx-2[8:1],6,5x/7^4[8:1],8,
{8}7bx/1bx-6[8:1],2,1x/3^8[8:1],4,3bx/5bx-2[8:1],6,5x/7,8,
{8}8bxv3[8:1],7,8x/6^1[8:1],5,6bx/4bxv7[8:1],3,4x/2^5[8:1],1,
{8}2bx/8bxv3[8:1],7,8x/6^1[8:1],5,6bx/4bxv7[8:1],3,4x/2,1,
{8}1b,,5,6,47,,2b-7-1[4:3]/6b-3-5b[4:3],,
{1},1b/Cf/B5/A5,,,,,,,
{4},,,3>6<3[1:2],
{4}3h[2:1],,,4,,,4,{8}6<3>6b[1:2],6,
{4}6h[2:1],,,6,,,4,,
{4}3>6<3[4:7],,5,4,,,4,5,
{4}6h[2:1],,5,4,4-8b[32.5#64:1]/5-1[32.5#64:1],,4h[4:5]/5bh[4:5],,
{1},
{4}4b-2[8:1]/5b-2[8:1],4^7[8:1]/5,1/4x,
{16}3h[8:1],,6,6,5-1[8:1],,4,,5/7-3[8:1],,6,,{4}7/8w4[8:1],8,
{8}2bx-5[8:1]/6bx-1[8:1],3bx/7bx,2bxV86[4:1]/6bx,,4,,3,
{24}7x,5,6x,4,,,2,4,3,5,,,{8}2,{4}1-5[8:1]/7-1[12:1],17,
{4}7bx-5[8:1]/4-2[8:1],7-3[8:1]/4,7/1^6[8:1]*^4[8:1],
1-5[8:1],1^6[8:1]/4x-8[8:1],41,52,{8}64,5,
42,1,87,,{24}3,4,5,{8}5,6h[16:1]/4,4,
{24}7,6,5,{8}4,4h[8:1]/2,,
{16}1,1,1,1,
{32}1,8,7,6,51,84,73,62,
{4}1b^4[8:1]/5b^8[8:1],{8}1-5[8:1]/5,,1/3x,,
{8}38,4,{24}7,5,6,5x,,,{8}4x-6[8:1],4,
{32}7x-3[8:1]*qq8[8:3],8x,1x,2x,,,,,{4}7x,
{8}2bx,3,4^1[8:1]/2-5[8:1],,24,,8,
{24}2x,4,3,5,,,7,5,6,{8}4x,6x,{32}2x^5[8:1],1,8,7,,,,,{4}25,
{4}2x-6[8:1]/6,2/8-4[8:1],8/5-1[8:1],5/7-3[8:1],
{4}7/8-4[8:1],8/6-2[8:1],65,{8}4,3,
{8}3h[8:1],{16}6,5,7h[16:1],,8h[16:1]/6,,1,3,2,4,3,,6h[8:1],,
{24}2bx,3,4,5,6,7,8,1,2,3,4,5,8bx,7,6,5,4,3,2,1,8,7,6,5,
{8}2b^4[8:1],,27,,1q5[8:1]/5,5,16,7,
{8}2-4[8:1]/6,7,28,,1-5[8:1]/8,8,17,6,
{8}2^4[8:1]/6,7,28,,1q5[8:1]/5,6,17,8,
{8}2-4[8:1]/7,,25,,1-4[8:1]/5-8[8:1],6,1/5,,
{8}7^5[8:1]/2^4[8:1],,72,,8p4[8:1]/2x,2x,83,2,
{8}7-5[8:1]/3,2,71,,8-4[8:1]/1,1,82,3,
{8}7^5[8:1]/3,2,71,,8p4[8:1]/4,3,82,1,
{16}68,,1,3x,1,,2xh[8:1],,4x,3,5,4,6,5,7,4,
{8}8b-6[8:1],4,8b-2[8:1],5,8b-6[8:1],3,8b-2[8:1],5,
8b-6[8:1],4,8b-2[8:1],5,8b-6[8:1],3,8b,{32}5x,4x,3x,2x,
{8}1bx-3[8:1],5,1b-7[8:1],4,1b-3[8:1],6,1b-7[8:1],4,
1b-3[8:1],6,1b-7[8:1],4,1b-3[8:1],5,1b,{32}4,5,6,7,
{16}1bx,2,3,4,2b,3,4,5,3b,4,5,6,4b,5,6,7,
{16}1bx,8,2,4,3b,7,5,6,8b,7,8,7,{32}A8,D1,A1,D2,A2,D3,A3,D4,
{16}4x,5,4x,5,{32}4x,5,6,7,8,1,2,3,
{16}6,5,6,5,{32}6,5,4,3,2,1,8,7,
{16}4,5,4,5,3,6,3,6,
{24}25,36,47,58,1,2,3,4,15,26,37,48,
{1}1b/5b,
