&title=硝子の鍵に似ていた
&artist=幽閉サテライト
&first=0
&des= 明文Glowen × Holinality × 烧碱君
&clock_count=4
&lv_5=13
&inote_5=(134)
{114},
{1},
{4},,,8<2[8:4],
{8}B1f,,,,,,1>7[8:4],,
{8}B8f,,,,,,1s5b[12:1]/8z4b[12:1],,
{32}1xb>4z8[8:10]/8xb<5s1[8:10],Cf,,,{8},,,,,,,
{8},,,,,,,,
{8}2h[8:2],,4h[8:2],,6h[8:2],,8h[8:2],,
{8}1-3[8:1],,7-1[8:1],,5-7[8:1],,3-5[8:1],,
{8}8-4[8:1],,8/2-7[8:1],,6-2[8:1]/2,,6/8<2[8:6],,
{8}1h[8:6]/8b,,,,,,,,
{8}1/2h[8:2],,4,6,8/7h[8:2],,5,3,
{16}1>4[8:1]/2,,,8,1,,7,,5<8[8:1]/6,,,,5/4,,3,,
{8}1-5[8:1]/2,,1/6,,{16}7/8-4[8:1],,,1,8,,3,,
{8}5-1[8:1],,2-4[12:1]/5,,B7/2x,,5,7,
{8}1-5[8:1]/3,,1/4,2,{16}6x/8-4[8:1],,,5,8,,7,,
{16}1-6[8:1]/3x,,,4,1-4[8:1],,2,,1-5[8:1]/5x,,,3,1,,2,,
{8}6/8-4[8:1],,2-7[8:1]/8,,6v3[8:1]/2,,4>5p4[8:6]/6,,
{8}Cf,,,,,,,,
{16}8h[16:3],,,2h[16:3],,,4h[8:1],,5>2[8:1],,,,6h[8:1],,,,
{16}1h[16:3],,,7h[16:3],,,5h[8:1],,4<7[8:1],,,,3h[8:1],,,,
{16}8<5[8:1],,,1,,,2,,3>8[8:1],,,4,,,5,,
{8}6x>8[64:28]/7xV53V17[8:4],,,,,,,,
{16}8h[16:3],,,3h[16:3],,,5h[8:1],,6>3[8:1],,,,7h[8:1],,,,
{16}1h[16:3],,,6h[16:3],,,4h[8:1],,3<6[8:1],,,,2h[8:1],,,,
{16}8-5[8:1],,,1,,,2,,3-8[8:1],,,4,,,5,,
{8}6xb>7[64:32]/7xbp6[64:32],,,,,,,,
{16}5,,,3,4,,2,,8-3[8:1],,6,,87,,,,
{16}5,,,6,4,,37,,1,,,2,8,,37,,
{16}5-8[8:1],,,4,5,,2,,1-5[8:1],,,8,1,,7,,
{1}6pp5>4[8:4]/4p3>2[8:4],
{16}1-5[8:1],,,5,1,,7,,8-4[8:1],,,4,8,,2,,
{16}1>4[16:2],,4xq1[16:2],4x,,,C,,8<5[16:2],,5x-2[16:2],5x,,,C,,
{8}1-5[8:1],5-1[8:1],,7,7-3[8:1],,1<3[8:6]/7,,
{8}2h[8:6]/1b,,,,,,,1xpp4[16:5],
{8}5xbpp8b[16:5],,,,,,7<4[8:1]/3>8[8:1],26,
{16}7b/3b,,,,,,1v6[8:1]/7,,1h[8:2],,,,,,7/2,,
{16}8v3[8:1],,,7,8>3[16:2],,6h[8:1],,8,,,,5qq2[8:4],,6,,
{16}7h[8:2]/5,,,,,,7,,6v1[8:1],,,5,6<3[8:4],,4,,
{16}6/4,,,,4,,,,4,,,,4-1[8:1]*-7[8:1],,35,,
{16}4,,,,,,3h[8:1],,8v5[8:1],,,2,8v3[8:1],,1,,
{16}8/6>3[8:1],,,2,6v1[8:1],,1,,6/2>5[8:1],,,8,2V86[8:2],,7,,
{16}2/6V42[8:2],,,,2<6[8:2],,,,6>2[8:2],,,,2q4[8:3],,,,
{16}6,,,,,,6,,6b/3b,,,,7-2[8:1]/3-6[8:1],,2/6,,
{16}7b/3b,,,,,,8>4[8:1]/2,,8h[8:2],,,,,,6x/3x,,
{16}1v6[8:1],,,2,1<6[16:2],,3h[8:1],,1,,,,4pp7[8:4],,3,,
{16}2h[8:2]/4,,,,,,2,,3v8[8:1],,,4,3>6[8:4],,5,,
{16}3/5,,,,5,,,,5,,,,5<8[8:1]*>2[8:1],,64,,
{16}5,,,,,,6h[8:1],,1v4[8:1],,,7,1v6[8:1],,8,,
{16}1/3<6[8:1],,,7,3v8[8:1],,8,,3/7<4[8:1],,,1,7,,2,,
{16}3b-1[8:1]/8b-4[8:1],,,,38,,,,6b-8[8:1]/1b-5[8:1],,,,61,,,,
{16}64,,7,,35,,2,,6,5,7,4,8,3,1,2,
{16}8xb,,,8,,,8h[8:4],,2,,,2,,,2h[8:4],,
{16}6,,,6,,,6h[8:4],,4,,,4,,,4h[8:1],,
{16}8h[8:3],,,B4/E4,,,B2/E3,,1h[8:3],,,B5/E6,,,B7/E7,,
{16}8h[8:3],,,3,,,2,,1h[8:3],,,7,,,6,,
{8}6-3[8:1],,1-6[8:1]/6,,4-1[8:1]/1,,45,,
{8}6>3[8:1],,1<6[8:1]/6,,4>1[8:1]/1,,54,,
{8}5-7[8:1],,5-2[8:1]/3,,8-4[8:1]/5,,8/1,,
{8}2-4[8:1],,2/5,,5-1[8:1]/6,,5/7,7,
{16}2,,2,,8,,8,,1-5b[8:1],7,3,5,1bqq5[8:3],,,,
{16}1/B3f,,,,,,,,2h[16:3],,,3h[16:3],,,4,,
{16}7h[16:3],,,6h[16:3],,,5,,5-1[8:1],,,,5qq1[8:3]/3,,,,
{16}5/B7f,,,,,,,,6h[16:3],,,4h[16:3],,,1<6[8:1],,
{16}1h[8:2],,,,,,2x,1x,8xw4[8:1],,,,,,,,
{16}2>5[8:1],,,1,2,,8,,8-6[8:1]*-5[8:1],,,,8-3[8:1]*-2[8:1],,,,
{16}8,,,7,7v4[8:1],,1,,7,,,2,2,,6,,
{12}36,,,3,4,2,6,5,7,4,5,4,
{16}35,,35,,46,,46,,5,3,6,4,7,,3x/8x,2xqq5[16:7]/7x,
{16}1x/6xV84[8:3],,,,,,,,,,,,,,16,27,
{16}8z4z8b[4:2]/3,,,,,,,,,,,,{8}4,3,
{8}2>5[8:1]/1,,12,8,7-4[8:1],,78,1,
{16}2>5-1[8:3],,,5,2,,1V73[4:1],,1,,,,6,,5,,
{8}4-7[8:1],,34,2,{16}1>4<7[4:1],,,4,1,,8pp8b[4:1]*qq8b[4:1],,
{8}8,,,,B2/A2/B6/A6,,36,25,
{8}1>4[8:1]/4,,18,7,{16}6<1p5[16:5],,,1,6,,2,,
{16}2>5p1[16:5],,,5,2,,6,,7^2p6[16:5],,,2,7,,3,,
{8}4>8[4:1],,8<4[4:1],,4>8[4:1],,8-3^2-5[8:3],,
{8}6-1b[8:1],,,,3b/7b,,18,2,
{8}3>8[8:1]/4,,34,5,6-1[8:1],,56,4,
{16}3>8-4[8:3],,,8,3,,4V62[4:1],,4,,,,7,,8,,
{8}1V74[4:1],,12,3,{16}3>8<5[4:1],,,8,3,,{8}4z8b[4:1]*s8b[4:1],
{8}4,,,,A1/B1/A5/B5,,26,37,
{8}8<5[8:1]/4,,18,2,{16}1>4[16:3],,,4qq2[8:1],5,,6,,
{16}8<5[16:3],,,5pp7[8:1],4,,3,,1>4[16:3],,,4q1[16:3],5,,6,,
{8}8<5[8:1],,2>5[8:1]/8,,7-3[8:1]/2,,17,,
{8}28,37,26,15,{16}2,6,2,6,3,7,4,8,
{1}5bxqq6>5pp4<5-1[4:6],
{1},
{16}E6,,,E5,,,E4,,E7,,,C,,,E3,,
{16}E8,,,E1,,,E2,,D1/E1,,,,,,,,
{16}E7,,,B6,,,B5,,E3,,,B3,,,B4,,
{16}E8,,,E2,,,E6/B5,,E4/B4,,,,D5,,,,
{16}E7,,,B7,,,B8,,E3,,,B2,,,B1,,
{16}E6,,,E4,,,E5,,E8/D8,,,,,E2/D2,,,
{8},D1f,,,,,,,
{1},
E
