&title=Cybernetic Vampire
&artist=void (Mournfinale)
&first=-0.03
&lv_5=14
&des_5=ARcana★X
&inote_5=
(110){4},{1},{16},{32},5h[32:13],
{8},,,{32}4,3,2,1h[32:9],{8},,,{16}6,
2,{8}5h[8:1],{16}2,2h[8:1],,6,{8}6h[8:1],{16}4,4h[8:1],
{8},{32}8,7,6,5,1,2,3,4,{8}8-4[2:1],{4},{32}4,3,2,1h[32:9],{8},,,{16}6,
5,6,7,6,4,6,8,6,3,6,1,
6,4,{32}6,7,8,1,5,4,3,2,{8}5b-1[32:15],{4},{32}4,3,2,1b<5[2:1],{8},,,{32}2,
3,4,5bv2[32:13],{8},,,{4}3h[8:1],
{8},8-4[16:1],,8b,{16},3h[8:1],,7h[12:1],{48},4h[12:1],{16},{48}5h[12:1],{16},{48}3,,4,
,2,,7,,4,,5,,3,,6,,1,,7,,4,,6h[24:5],{16},,,{48}2,{24},{48}3,{24},{48}4,{24},5,{48},1,{96},2,{48},{96}3,{48},{96}5/4,{48},6,
{96},7,{48},{24}8,{48},2,{96},3,{48},{96}4,{48},{96}5,{48},6,{96},7,{48},{96}8,{48},{96}1/5,{48},2/6,{96},3/7,{48},{12}4s8b[48:157]/8bz4[48:157],{1},,,{4},,{8},{32}E6,
E5,{16}E4,{8},3h[8:1]/4bh[4:1],,2b,,6h[8:1]/5bh[4:1],
,7b,,4h[4:1]/3h[16:1],1,1,1,5h[4:1]/6h[16:1],
8,8,8,{16}1,1,5,5,2,2,6,6,{32}3,7,3,7,
3,7,3,7,3>1v7<4-8b[8:3],7,3,7,3,7,3,7,{2},{32}6,5,4,3,
6,5,4,3,6,5,4,3,6,5,4,3,{8}6b/2xh[8:1],,6h[16:1],3h[8:1],{16}5,4,
,4,{8}5,2x,{16}5h[16:3],4,{8}4,3h[16:1],6h[8:1],{16}4,5,
,5,{8}4,7x,3h[8:1],,{16}5,5h[16:1],3,3h[16:1],,6,
6h[16:1],4-8[16:1],4,5xh[16:1],{8},{16}6,6h[16:1],4,5,5h[16:1],3,{8}3h[16:1],{16}6,6h[16:1],
4,4h[16:3],{8}5xh[16:1],,5-1[8:1]/4-2[8:1],1/2,5-7[8:1]/4-8[8:1],A1/A2,5/4,
A7/A8,4h[16:1]/5h[8:1],,4-8[8:1]/5-7[8:1],8/7,4-2[8:1]/5-1[8:1],A8/A7,5/4,
A2/A1,5h[16:1]/4h[8:1],,8/1-3[8:1],3/4,1/8-6[8:1],5,1-5[8:1]/8-4[8:1],
5,1,,1/8-6[8:1],6/5,8/1-3[8:1],4,8-4[8:1]/1-5[8:1],
4,8,,2/6h[4:3],4,2,4,2,
4,{16}2,2,2/6b,2,{8}2b/6h[8:7],4,2,4,2,
4,2,,7/3h[4:3],5,7,5,7,
5,{16}7,7,7/3b,7,{8}7b/3h[8:3],5,7,5,{24}7,4,5,
{16}2,4,3,5,4,6,{8}3/7h[4:3],5,3,5,3,
5,{16}3,3,3/7b,3,{8}3b/7h[8:7],5,3,5,3,
5,3,,6/2h[4:3],4,6,4,6,
4,{16}6,6,6/2b,6,{8}6b/2h[16:3],{16},4h[16:3],{8},{16}5h[16:3],{8},{16}7h[16:3],
{8},{32}B1,B2,B3,B4,B5,B6,B7,B8,{8}1xh[2:3],,{16}B7,B6,B5,B4,{8}E4,
B8,E5,E7,{16}B4,B5,B6,B7,{8}E8,,,,{32}7,
6,5,4,1,2,3,4,{8}8h[8:15],,{16}B5,B4,B3,B2,{8}E2,
E5,E3,B1,{16}B3,B4,,E2,{8},{16}B4,B5,,B2,
{8},{16}B3,B5,{8}B4,3xh[8:3],{16},6h[16:1],{8},5h[16:1],{16}3,4,
3,4,3,5,3,6,{24}3,7,4,6,3,5,4,6,5,6,4,7,3,4,2,
6,4,8,3,5,2,6,3,6,4,6,5h[24:31],{8},,,,,,,1h[8:3],
,,,{24}5,1,4,
8,3,7,2,6,1,{64}5x,A4,A3,A2,A1,A8,A7,A6,A5,A4,{32}A3f/E4f/B3f,{16},,,{8}6w2[16:1],,A6f,
,3w7[16:1],,A3f,,5w1[16:1],,A5f,
,8z4[16:1]/1s5[16:1],,A8f/A1f,,1-3[0.2727##0.1364]/8-6[0.2727##0.1364],1/8,8-4[0.2727##0.1364]/1-5[0.2727##0.1364],
1/8,{16}8,1,8V64V28[0.2727##0.8182],1,{8}8,2,8V64V28[0.2727##0.8182],6,4,
8-6-4[0.2727##0.4091],6,4,1V35V71[0.2727##0.8182],5,7,1V35V71[0.2727##0.8182],3,
5,1-3-5[0.2727##0.4091],3,5,1-5[0.2727##0.1364]/8-4[0.2727##0.1364],1/8,8-6[0.2727##0.1364]/1-3[0.2727##0.1364],1/8,
{16}3,5,{32}3,4,{16}3,{32}6,5,{16}6,2-4[0.2727##0.1364],5,2,7,2-8[0.2727##0.1364],5,2,7,2-4[0.2727##0.1364],5,
2,6,{8}2-8[0.2727##0.1364],{16}2b,7,2,7-1[0.2727##0.1364],4,7,2,7-5[0.2727##0.1364],4,7,3,7-1[0.2727##0.1364],
1-5[0.2727##0.1364],7,{4},{16}2-6[0.2727##0.1364],8,2,8-4[0.2727##0.1364],1,8,1-5[0.2727##0.1364],8,1,7-3[0.2727##0.1364],
1,7,,1b,1b,1b,{8}1b>4[0.2727##0.2727],{16},4b<7[0.2727##0.2727],{8},{16}7b>2[0.2727##0.2727],{8},{16}2b>5[0.2727##0.1364],
{96},,,,,,,D3,A3,D4,A4,D5,{8}A5f,,5h[4:1],,4h[8:1],{16},{32}4/5,3/6,2/7,1h[32:11]/8h[32:7],{16},,,,,6,
2,{8}5h[8:1],{16}2,2h[8:1],,6,{8}6h[8:1],{16}4,4h[8:1],
{8},{32}8,7,6,5,1,2,3,4,{8}8h[4:1],{4},{32}4/8,3/7,2/6,1h[32:9]/5h[32:9],{8},,,{16}3,
4,3,2,3,5,3,1,3,6,3,8,
3,5,{32}3,2,1,8,5,6,7,8,{24}1b/2b,,6b/5b,,8b/7b,,{8}3b/4b,{32}5,6,7,8h[32:13],{8},,,{32}5,
4,3,2h[32:13],{8},,,5h[8:1],3h[16:3],
,5h[8:1],,{24}5bx,5b,5b,5b,5b,{96}5b,A5f,{48},,,,,,,{24}6,5,7,3,4,2,
6,4,7,3,5,2,{32}6,5,7,4h[32:7],{16},,,7,6,5,4,{32}8,7,6,4/5,3,2,
{16}1,{32}7,6,5,4,3,2,1,8/4,7/3,6/2,{8}5z1b[4:5]/1bs5[4:5],,,,,,,,,,,,,,C,
,6/B5,6/B4,6/B3,6/B2,3/B4,
3/B5,3/B6,3/B7,{16}2,2b,2/4b,4,4/5b,5,5/7b,7,7b,{32}3,4,
2,6,5,7,{64}1x,2,3,4,7x,6,5,4,1x,2,3,4,5,6,7,8,1x,2,3,4,{16}5w1[16:17],
E
