&title=サンドリヨン 10th Anniversary
&artist=Dios/シグナルP
&first=0.04
&des=冰葱99
&clock_count=4
&lv_5=13
&inote_5=(147){1},
{4}1h[1:1],,,8,
{4}7h[1:1],,,2,
{4}3h[1:1],,,6,
{2}5h[2:1],4h[2:1],
{8}6h[1:1],,,,,,5,4,
{8}3h[1:1],,,,,,5,6,
{8}7h[1:1],,,,,,4,3,
{8}2h[2:1],,,,8h[2:1],,,,
{4}1>7[4:3],8,8,8,
{4}8<2[4:3],1,1,1,
{8}1,,1/4,4,2/5,2,3/6,6,
{16}4/7,,4,,5/8,,5,6,5-1[8:1],,,,7/5,,,,
{4}2/7-4[8:1],8,6/3-8[8:1],4,
{4}7/2-5[8:1],1,3/6-1[8:1],5,
{4}4/8-5[8:1],2,5/1-4[8:1],7,
{16}2/5,,3,4,3,4,3,,4/7,,6,5,6,5,6,,
{2}7h[2:1]/3h[2:1],{16},,7/3,,,6/2,,,
{2}5h[2:1]/1h[2:1],{16},,6/2,,,7/3,,,
{2}8h[2:1]/4h[2:1],{16},,8/4,,,7/3,,,
{4}6/2^5[4:1],5^8[4:1],8-4[8:1],,
{2}2h[2:1]/6h[2:1],{16},,2/6,,,3/7,,,
{2}4h[2:1]/8h[2:1],{16},,3/7,,,2/6,,,
{2}1h[2:1]/5h[2:1],{16},,1/5,,,2/6,,,
{16}7^4[4:1]/3,,,,4^1[4:1],,,,1^6[4:1],,,,6qq1[2:1],,,3h[16:9],
{4},,,2h[4:1]/7,
{4}1h[4:1],8h[4:1],7h[4:1],6h[4:1],
{4}5<4[2:1],,,1h[4:1],
{4}2h[4:1],3h[4:1],4h[4:1],5p1[8:1],
{8}8,7,6,5q1[8:1],,2,3^8[8:1],4,
{8}7,6,5,4q8[8:1],,1,2,{16}7>4[8:5],6,
{8}5h[4:3],,,,,,,{16}4,5,
{16}4w8[8:1],,,,4,,,,6/2,,,8/4,,,7/3,,
{16}2/5,,3,4,3,4,3,,7/4,,6,5,6,5,6,,
{8}2b-5[8:1]/7b,,2/8-4[8:1]
,,8/1-5[8:1],,1/6pp1[2:1],,
{16}2/6,,,3,,,4,,5^2[8:1]*^8[8:1],,,,5,,,,
{16}1/7,,,2/6,,,3/5,,4-7[8:1]*-1[8:1],,,,4qq8[2:1],,,,
{16}4/6h[4:1],,,,,,7,6,5-1[8:1]*-2[8:1],,,,5b,,,,
{16}8p4[8:1]/4,,,3,,,2,,8q4[8:1]/4,,,5,,,6,,
{16}8-4[8:1]/4,,,3,,,2,,8w4[8:1]/4,,,,8,,,,
{16}2^7[8:1]/6,,,,,,6,6,7-4[8:1],,8,,1,,2,,
{16}3,6,3,6,3,6,3,6,1,8,3,6,1,8,3,6,
{8}7b-4[8:1]/2b,,7/1-5[8:1],,1/8-4[8:1],,8/3qq8[2:1],,
{16}7/3,,,6,,,5,,4^7[8:1]*^1[8:1],,,,4,,,,
{16}8/2,,,7/3,,,6/4,,5-2[8:1]*-8[8:1],,,,5,,,,
{16}2/7,,4/5,,3/6,,1/8,2h[16:5]/7h[16:5],,,,,,,4/5,,
{16}1b/2b,,,6/7,,,3/4,,2v5[8:1]/6^1[8:1],,,,2/6,,,,
{16}4b/3b,,,6/7,,,2/1,,3v8[8:1]/7^4[8:1],,,,3/7,,,,
{16}1b/2b^5[8:1],,,,,,8,7,6<3[4:1],,,,3pp7[2:1],,,,
{16}8h[4:1],,,,,,,,1^4[8:1],,,,,,7,6,
{1}5bpp8[1:1]*qq2[1:1],
{8},,,,7-4[8:1]/3-8[8:1],,7/3,,
{8}6b/2b,2-6[8:1],2,2b/8,8qq4[1:1],8,8b/1h[1:1],,
{1},
{8}7b/1b,7-3[8:1],7,7b/1,1>6[2:1],1,1b/8h[2:1],,
{8},,,,2-5[8:1]/6-1[8:1],,2/6,,
{8}3b/7b,7-3[8:1],7,7b/1,1pp5[1:1],1,1b/8h[1:1],,
{1},
{1}3h[4:3]/4pp7[2:1],
{1}6h[4:3]/5qq2[2:1],
{2}3h[8:3]/4^7[8:1],6h[8:3]/5^2[8:1],
{2}4qq2[8:1]/5pp7[8:1],1-5[8:1]/8-4[8:1],
{2}2q6[8:1]/6q2[8:1],7p3[8:1]/3p7[8:1],
{16}1b/5b,,,3b/7b,,,2b/6b,,4bp8[8:1]/8bp4[8:1],,,,4/8,,,,
{16}2b/6b,,,,,,4,5,4q5[2:1],,,,6,,7,,
{4}8h[2:1],,1b,2/7,
{4}1b-4[8:1]/3b,1/8-5[8:1],8/7^2[8:1],7/3qq8[2:1],
{16}3/7,,,6,,,5,,4^7[8:1]*^1[8:1],,,,4,,,,
{16}2/8,,,3/7,,,4/6,,5-2[8:1]*-8[8:1],,,,5,,,,
{16}2/7,,4/5,,3/6,,1/8,2h[16:5]/7h[16:5],,,,,,,1/8,,
{16}6b/7b,,,2/3,,,4/5,,1^6[8:1]/8^3[8:1],,,,1b/8b,,,,
{16}4/5,,,2/3,,,6/7,,1-5[8:1]/8-4[8:1],,,,1b/8b,,,,
{16}3^6[8:1]/6,,,,,,7,8,1w5[8:1],,,,1,,,,
{16}3,6,3,6,3,6,3,6,1,8,3,6,1,8,3,6,
{4}2b-6[8:1]/7b,2/1-5[8:1],1/8-4[8:1],8/7pp2[2:1],
{16}3/7,,,4,,,5,,6^1[8:1]*^3[8:1],,,,6,,,,
{16}4/8,,,3/7,,,2/6,,5-8[8:1]*-2[8:1]/1,,,,5pp1[2:1],,,,
{16}5/3h[4:1],,,,,,2,3,4-7[8:1]*-8[8:1],,,,4b,,,,
{16}1q5[8:1]/5,,,6,,,7,,1p5[8:1]/5,,,4,,,3,,
{16}1-5[8:1]/5,,,6,,,7,,1w5[8:1]/5,,,,1,,,,
{16}7^2[8:1]/3,,,,,,3,3,2-5[8:1],,1,,8,,7,,
{16}6,3,6,3,6,3,6,3,8,1,6,3,8,1,6,3,
{4}7b-3[8:1]/2b,7/8-4[8:1],8/1-5[8:1],1/2qq7[2:1],
{16}6/2,,,5,,,4,,3^6[8:1]*^8[8:1],,,,3,,,,
{16}5/1,,,6/2,,,7/3,,8/4w8[8:1],,,,4,,,,
{16}3/4,,5/6,,7/8,,1/2,3h[16:5]/8h[16:5],,,,,,,4/5,,
{16}1b/7b,,,2/3,,,4/6,,7-4[8:1]/8-3[8:1],,,,7/8,,,,
{16}2b/8b,,,6/7,,,3/5,,1-6[8:1]/2-5[8:1],,,,1/2,,,,
{16}3b/7b^4[8:1],,,,,,1,2,3>6[4:1],,,,6qq2[2:1],,,,
{16}1h[4:1],,,,,,,,8^5[8:1],,,,,,2,3,
{1}4bpp8[1:1]*qq8[1:1],
{4},,2-5[8:1]/6-1[8:1],2/6,
{8}3b/7b,7^4[8:1],6,7b/1,1pp5[1:1],2,1b/7h[1:1],,
{1},
{8}2b^5[8:1]/6b,,,8b^5[8:1],,,1bs5[8:3],,
{4},,3-8[8:1]/7-4[8:1],3/7,
{8}1b^4[8:1]/5b,,,7b^4[8:1],,,1b>3[2:1]*>4[4:3]*>5[1:1]*>6[4:5]*>7[2:3]*>8[4:7],
E
