&title=黄色信号
&artist=友成空
&first=0.01
&des="殺せんせー"
&lv_5=13+
&inote_5=(210)
{4}
,,,,
{8}
3-6[8:1]/5h[2:1],,,,7x,7x,,6x/8x,
,7x/1x,,8x/2x,,1xh[8:1]/3xh[8:1],,,
2-7[8:1]/4h[2:1],,,,6x,6x,,5x/7x,
,6x/4x,,5x/3x,,4xh[4:1]/2xh[4:1],,,
1/3-6[8:1],,,,2-7[8:1],,,,
3-6[8:1],,,,2,,1x-5[8:1],,
8/1,7-4[8:1],,7/1,2-5[8:1],,2/1,8-4[8:1],
,8/2,3-8[8:1],,7b,7b,7b,7b,
7b/1-5[8:1],,6-1[8:1],,2,2,,8h[8:1]/2h[8:1],
,1h[8:1]/3h[8:1],,2h[8:1]/4h[8:1],,3h[8:1]/5h[8:1],,4/6,
4/6-1[8:1],,2-6[8:1],,8,8,,7h[8:1]/5h[8:1],
,6h[8:1]/4h[8:1],,5h[8:1]/3h[8:1],,4h[8:1]/2h[8:1],,1/3,
1/3-7[8:1],,8-3[8:1],,6,6,,6h[8:1]/4h[8:1],
,5h[8:1]/3h[8:1],,4h[8:1]/7h[8:1],,5h[8:1]/2h[8:1],,8/4,
8-4[8:1]/4,,3-8[8:1],,6,6,,1xh[4:1],
,8xh[24:5],
{12}
,7xh[6:1],,6xh[6:1],,5xh[6:1],,4xh[6:1],,
{8}
3bx,,3bx,,3,,3,4V68[8:5],
3,,3,,3,,3,,
3/E2,,3/C,,3/E6,,3,6V84[8:5],
3,,3,,3,,3,,
3/5,,4,,4/6,,7,7h[8:1],
,2/8,2-6[8:1]/8-4[8:1],,2b/8b,,,,
7h[4:1],,8,1,2h[4:1],,1,8,
7-3[8:1],2<4[8:3],7,2,,,C,,
6x,,6x,,6,,6,8>3v5[2:1],
6,,6,,6,,6,,
6/E4,,6/E3,,6/E2,,6,8V25[8:5],
6,,6,,6,,6,,
6-8[8:1],,8-5[8:1],,5-1[8:1],,2,2h[4:1],
,8,1,7,E1f,E2,E3,E4,
7h[4:1],,8,1/6,2h[4:1]/5,,1,8/3,
7-3[8:1],2-8-6-4[8:3],7,2,,,C,,
6xV85[8:3]/4xV25[8:3],,,,,,,7>2[4:1],
,2-6[4:1],,6-3[4:1],,3>8[4:1],,8<4[4:1],
,4>7[8:3],4,,7<7[2:1],,3,3h[8:5],
,,,,5,5,4,6h[8:3],
,5,5,,7/8,1/6,,3h[8:3],
,4,4,,1/2,8/3,,7-3[8:1],
,,1,1-5[8:1],,6-1[8:1],,2>8[8:3],
,,,,5x,5xqq1[8:5]*pp1[8:5],,5b,
,,,,,,2/8,2/8-6[8:1],
,2-6[8:1]/8,,2/8-4[8:1],,2/8,,2h[4:1],
,1,8,7,6-1[8:1],2qq5[8:3],6,2,
,,,,7,7,8,6/1,
,5,5<8[8:1],4,3,2,,1/2,
,3,3>8[8:1],4,5,6,,6h[4:1],
,5,4,3/6,2/7,1pp4[8:7]/8qq5[8:7],,1b/8b,
,,,,,,,,
,5h[4:1],,4,3/6,7/2,8/1,,
{16}
8bx<5[8:1]`1bx>4[8:1],,8/1,,,,,,8x<5[8:1]`1x>4[8:1],,8/1,,,,,,
7x/1x,,6,5,6,,7-4[8:1]/3v8[8:1],,,,7/3,,,,,,
8bx>3[8:1]`4bx<7[8:1],,8/4,,,,,,8x<5[8:1]`4x>1[8:1],,8/4,,,,,,
5x/2x,,3,4,3,,7-3[8:1]/1-5[8:1],,,,1b/7b,,,,,,
{8}
8-4[8:1],,8/3-8[8:1],,3/7-3[8:1],,7/2-5[8:1],,
2/6-1[8:1],,6/4-8[8:1],,4/7-4[8:1],,7/2,2<7[8:1],
,6,6>3[8:1],,2-6[8:1],,8v5[4:1],8v3[8:1],
,,,,,8/1,7/2,6/3,
{16}
4bx>1[8:1]`5bx<8[8:1],,4/5,,,,,,1x>4[8:1]`8x<5[8:1],,1/8,,,,,,
2x/6x,,3,4,3,,2-5[8:1]/6-2[8:1],,,,2/6,,,,,,
2x>5[8:1]`1x<6[8:1],,2/1,,,,,,8x>3[8:1]`7x<4[8:1],,8/7,,,,,,
2x/8x,,6,5,6,,7<3[8:1]/3q7[8:1],,,,7b/3b,,,,,,
{8}
8>3[8:1],,8/5<8[8:1],,5/2>5[8:1],,2/7-4[8:1],,
7b/3bv8[8:1],,3/6>3[8:1],,6b/1b-5[8:1],,1/6<1[8:1],,
6/3h[8:5],,,,,2,1,8-5-8[8:5]/4v1v4[8:5],
,,,,,,,,
2-5[8:1]/6,,2/1-6[8:1],,1/8-3[8:1],,8/7-4[8:1],,
7/2-5[8:1],,2/6-1[8:1],,6/3-8[8:1],,3/7,7-3[8:1],
,1-5[8:1],1,6-1[8:1],6,,2,2-6[8:1],
,5,5h[4:1],,6bx<4[4:1]*<3[24:5]*<2[24:4]*<1[8:1],,,,
8xh[4:1],,4,3,2h[4:1],,7,6,
5-1[8:1],2>5[8:1],5<8[8:1],,,,5,5,
3,6,4,7,5,8,1,2h[8:1]/8h[8:1],
,3h[8:1]/1h[8:1],,4h[8:1]/2h[8:1],,3/5,3/5,3/5,
3/5h[4:1],,1,2/8,3h[4:1]/7,,8,1/7,
2/6,8v6[4:1]/4v2[4:1],2/6,8/4,,,3,3,
5,4,6,5,7,8,6,1/7,
,1x/3x,
{12}
,7x/5x,,2x/4x,,7x/8x,,5x/2x-6b[16:1],,,
E
