&title=待チ人ハ来ズ。
&artist=豚乙女
&first=0
&lv_6=13
&des=Gokasa
&inote_6=
(160){4},,,,7h[8:5],
{8}5,5,,,,,{1}6h[2:1]/4h[2:1],
{4}5h[8:3],{8}3,3,,2h[8:7],,4h[8:5],
,,,,,,,,{1}1>5[2:1],
{8}6h[8:3],,,5h[8:3],,,{4}4h[4:1],
{1}3>6[2:1],
{8}1/8,{16}7,3,{8}7,8/1,{16}2,6,{8}2,{4}4/5,
6b-4[8:1],{8}3,2,4-7[8:1],1,{4}1,
2/7-3[8:1],2,{8}3,4,{4}5/2,
3-5[8:1],{8}6,7,5-2[8:1],8,{4}8,
7/2-6[8:1],7,{8}6,5,4/7,3,
{4}7-4[8:1],{8}3,2,4-8[8:1],1,2,3,
,4-2[8:1],{4}4-6[8:1],,7/1,
2-5[8:1],{8}6,7,5-1[8:1],8,{4}8,
{8}1/7,6,2/8,3,8/1,2/7,{16}4,5,{8}4,
{4}6b/3b>6[2:1],{8}5,5,,,{4}5,
{8}3,3,,4,,5,{4}5,
6/3p6[8:3],{8}5,5h[8:3],,,,,6,
8,2,4,,8/1,{4}8/1,
3b/6b<3[2:1],{8}4,4,,,{4}4,
{8}6,6,,5,,4,{4}4,
3/6q3[8:3],{8}4,4h[8:3],,,,,5,
5h[4:1],,1,{16},,,,1,8,{8}1,
3/4,5/2-5[8:1],,6,{2}6h[4:1],
{8}6/5,4/7-4[8:1],,3,{4}3,{16}3,4,{8}3,
5,6,7,8,1,2,3,4,
5-1[8:1],{16},,,,,,,,,,,,7,7,
{4}5-1[8:1],6>3[8:1],{8}2,1,8,7,
{4}2-5[8:1],{8}6,6-3[8:1],,4,{4}4<7[8:1],
{8}3,2,1>4[8:1],8,7,6<1[8:1],5,4,
3qq6[8:3],,,7h[8:3],,,,,6,
5,7/4<7[8:1],3,,2,{4}2,
1>4[8:1],8,{8}7<4[8:1],7,{16},,,,3h[16:3],
,,4h[16:3],,,{8}5,{16}6h[16:3],,,7h[16:3],,,{8}8,
{4}1>7[4:1],{8}8,8,{4}8,{16}2,6,3,5,
{4}4-8[8:1],3<6[8:1],{8}7,8,1,2,
{4}7-4[8:1],{8}3,3-6[8:1],,5,{4}5>2[8:1],
{8}6,7,8<5[8:1],1,2,3>8[8:1],4,5,
6,6-1[8:1],,2-5[8:1],,8,,,3,
4,2/5>2[8:1],6,,7,{4}7,
{2}8-5[8:1]*-3[8:1],{8}4-1[8:1],4-7[8:1],,,2,
{16}8,8,4,5,{8}3,{16}1,1,5,4,{4}6,
{16}3,5,3,5,4,6,4,6,5-1[8:1],7,5,7,{4}5,
{16}3b/7b,,,5/1,,3,{8}4,{16}6,5,7,7,,8/4,,7,
{8}5,{16}3,5,,7,{8}5,{16}3,4,2,2,,8,,8,
{8}1,{16}2,4,,6,{8}4,{16}2,4,,5/1,,1/5,,,6,
6h[8:1],,5h[8:1],,4h[8:1],,3h[8:1],,2h[8:1],,1h[16:3],,8,{8}8,
{16}7,5,6,4,5,3,{8}4,{16}2,8h[8:1],,3,{8}8h[8:1],{16}4,8h[16:3],
,,2,6,3,5,{8}4,{16}7,1h[8:1],,6,{8}1h[8:1],5,
{16}6,4,2,6,4,2,6,4,2,6,4,2,6,4,2,1,
7-4[16:1],,,7/1-5[16:1],,,{8}1/8-4[16:1],{16},8/2,,,3,5,3,5,
{1}2<5[8:3],
{2}8-4[8:1]/5>2[8:1],{8}1>4[8:1],8,7,6,
{4}5-2[8:1],{8}3,3-6[8:1],,8,{4}8>3[8:1],
{8}7,6,5<8[8:1],4,3,2>5[8:1],1,8,
7qq2[8:3],,,3h[8:3],,,,,{4}1-5[8:1]/4>1[8:1],
1/4<7[8:1],{8}8,1,{12}2,{24},,2/8,3/7,
{2}4-1[8:1]/6-1[8:1],{8}2>5[8:1],1,8,7,
{16}6h[16:3],,,5h[16:3],,,{8}4,{16}3h[16:3],,,2h[16:3],,,{8}1,
{4}8<2[4:1],{8}1,1,{4}1,{16}8,7,6,5,
{2}1-5[8:1]/4<7[8:1],{8}8<5[8:1],1,2,3,
{4}4-7[8:1],{8}6,6-3[8:1],,1,{4}1<6[8:1],
{8}2,3,4>1[8:1],5,6,7<4[8:1],8,1,
2,2-5[8:1],,6-1[8:1],,4,,,6,
5,7/4<7[8:1],3,,2,{4}2,
{2}1-4[8:1]*-6[8:1],{8}5<8[8:1],5>2[8:1],,,8,
{16}1,1,5,4,{8}6,{16}8,8,4,5,{4}3,
{16}6,4,6,4,5,3,5,3,4-8[8:1],2,4,2,{4}4,
{8}1h[4:1],8,7,6h[4:1],5,4,{4}3/7,
{8}8h[4:1],1,2,3h[4:1],4,5,{4}6/2,
{8}7h[4:1],5,5,3h[4:1],5,5,{4}2/6,
1>4[8:1],{8}6,6<1[8:1],,5,4,3,
2h[4:1],1,8,7<4[8:1],,3,{12}3,{24},,3/5,2/6,
{8}1-4[8:1]/7-4[8:1],,,,,2/6,{4}2/6,
{16}7h[16:3],,,4,{8}6,8/2,{16}6h[16:3],,,3,{8}5,7/1,
{16}5h[16:3],,,2,{8}4,1,{4}1-5[8:1],1,
{16}7,5,7,5,7,5,7,5,7,5,7,5,7,5,7,5,
7,3,7,3,7,3,6,2,6,2,6,2,5,1,5,1,
6,2,6,2,6,2,5,3,5,3,5,3,5,3,5,3,
4,4,4,4,4,4,4,4,4,4,4,4,{4}4h[4:1],
{8}2h[4:1],1,1,7h[4:1],8,8,{4}5/4,
7<4[8:1],{8}3,3>8[8:1],,4,{4}4-8[8:1],
4,{8}7/1,6,4,2/8,3,5,
7/5,6/8,7/1,2/8,1/3-7[8:1],4/2>7[16:3],3,2b,
E
