&title=snowloop*
&artist=棗いつき × 藍月なくる
&first=0
&des=神様、どうか二人を照らして
&lv_5=13+
&inote_5=(172)
{16}
,,,,,,,,
,,,,,,,,
{16}
A3h[8:4]/D3`D4,,,,,,,,
,,,,,,,,
{16}
A7h[8:4]/D7`D8,,,,,,,,
,,,,,,,,
{16}
B2h[8:4]/E2`E3,,,,,,,,
,,,,,,,,
{16}
B6h[8:4]/E6`E7,,,,,,,,
,,,,,,,,
{16}
B2h[8:4]/E2/B1`E3`B3,,,,,,,,
,,,,,,,,
{16}
B6h[8:4]/E6/B5`E7`B7,,,,,,,,
,,,,,,,,
{16}
E3h[8:4]/A3/E4`A2`E2,,,,,,,,
,,,,,,,,
{16}
E7h[8:4]/A7/E8`A6`E6,,,,,,,,
,,,,,,,,
{16}
1>7[8:4]/7<1[8:4],,,,,,,,
,,,,,,,,
{16}
3>8[8:2],,,,8<5[8:2],,,,
,,,,,,,,
{16}
8<2[8:4]/2>8[8:4],,,,,,,,
,,,,,,,,
{16}
6<1[8:2],,,,1>4[8:2],,,,
,,,,,,,,
{16}
1pp2[8:3]/7qq6[8:3],,,,,,,,
,,,,,,,,
{16}
7<1[8:4],,,,,,,,
,,,,,,,,
{16}
8q6[8:3]/2p4[8:3],,,,,,,,
,,,,,,,,
{16}
2bp8[8:4]/8b,,,,,,,,
,,,,7,,,,
{16}
6/5h[8:4],,,,,,6,,
B8,,,,,,3h[8:5]/5,,
{16}
,,4,,4,,,,
B8,,E2,,,,,,
{16}
3/4h[8:4],,,,,,3,,
B1,,,,,,6h[8:5]/2,,
{16}
,,5,,5,,,,
B1,,E8,,,,,,
{16}
6/5h[8:4],,,,,,6,,
B4,,,,,,3h[8:5]/4,,
{16}
,,2,,2,,,,
B4,,B1,,,,,,
{16}
3/4h[8:4],,,,,,3,,
B5,,,,,,6h[8:3]/5,,
{16}
,,7,,7>5[16:4],,,,
C,,,,,,,,
{16}
7bx/4bx,,6,5,6,,74,,
B1/E2,,,,3,,3,,
{16}
26,,8,,1,,3,5,
3,5,4,,B1/E2,,,,
{16}
2/5,,3,4,3,,25,,
B8/E8,,,,5,,5,,
{16}
63,,2,,1,,6,4,
6,4,5,,B8/E8f,,,,
{16}
,,3,4,3,,25,,
A1/E1,,,,6,,6,,
{16}
3/5,,1,,8,,6,5,
6,5,7,,A1/E1,,,,
{16}
46,,3,,12,,8,,
6<1[8:1]/5>2[8:1],,,,5p2[8:5]/6p3[8:5],,,,
{16}
,,,,,,,,
,,,,,,8,,
{16}
7xh[8:6]/5x<4[8:4],,,,,,,,
,,,,,,,,
{16}
6xh[8:6]/5xV71^8V24[8:4],,,,,,,,
,,,,,,,,
{16}
5xh[8:2]/6-8[8:1],,,,,,,,
4xh[8:2]/5-1[8:1],,,,,,,,
{16}
3xh[8:2]/4-2[8:1],,,,,,,,
1xh[8:2]/8-6-2-4[16:5],,,,,,,,
{16}
1bx,,,,3-8[8:1]/7-4[8:1],,,,
3x/7x,,,,6^1[8:1]/2^5[8:1],,,,
{16}
6x/2x,,,,8v5[8:1]/4v1[8:1],,,,
4x/8x,,,,2,,2,,
{16}
5/3,,6,,7/4,,3,,
5,4,5,4,6,3,7,2,
{16}
8h5[16:7],,,,,,,,
{16}
3x/7x,2x/6x,
{16}
1x/5x,,Cf,,,,
{16}
1bx,,,,3/4<7[8:1],,2,,
1>4[8:1],,,,6,,6<1[8:1],,
{16}
,,3,,4qq5[16:4],,8h[8:3],,
,,,,,,7,,
{16}
6/5x>2[8:1],,,,5/6,,7,,
8<5[8:1],,,,1/8,,3>8[8:1],,
{16}
,,6>3[8:1],,7,,1/6,,
,,,,8,,1,,
{16}
3/4x-7[8:1],,,,1-5[8:1],,1,,
8>3[8:1],,,,4,,5qq4[16:3],,
{16}
,,1,,8,,6h[8:3],,
,,,,1,,8,,
{16}
6/5x-2[8:1],,,,8-4[8:1],,8,,
1<6[8:1],,,,5,,4pp5[16:3],,
{16}
,,8,,1,,2V48[16:3],,
,,6,,7,,,,
{16}
3b/5b,,2,1,2,,8,,
7-5[12:1]/5-3[12:1],,,,7/5,,,,
{16}
1x/8x,,6,5,6,,34,,
2V46[24:4],,,,2/1,,,,
{16}
8bx,,7,5,7,,4,,
3-1[12:1]/1-4[8:1],,,,3/1,,,,
{16}
1x/8x,,3,7,3,,45,,
6-8[12:1],,8-5[8:1],,,,,,
{16}
1b,,2,4,3,,8,,
6<1[8:1]/5qq6[8:2],,,,5/6,,,,
{16}
1xqq2>5[8:4],,,,,,,,
,,,,,,1,,
{16}
7b/3b,,5,4,6,,3/5,,
2,,1V74[24:5]*<6[8:1],,6>3[8:1],,1x,,
{16}
A6f,,,,8xV64b[24:4],,,,
{24}
3bx,2bx,1bx,
{16}
,,C,,,,
{32}
2bx/6bx,3x/7x,8x/4x>1p4[32:38],1x/5x<8q5[32:37],
{16}
,,,,,,
,,,,,,,,
{16}
,,,,,,,,
,,,,7<1s5[16:24]/2>8z4[16:24],,18,,
{16}
,,,,,,,,
,,,,,,,,
{16}
,,,,,,,,
,,,,,,,,
{16}
45,,3,,46,,6,5,
6,5,6,,47,,,,
{16}
65,,4,,53,,2,4,
2,4,2,,35,,,,
{16}
34,,5,,26,,7,4,
7,4,7,,38,,,,
{16}
65,,4,,62,,1,5,
1,5,1,,37,,54,,
{16}
1xpp4[8:12],,,,,,,,
,,,,,,,,
{16}
,,,,,,,,
,,,,,,,,
{16}
1pp4[8:10],,,,,,,,
,,,,,,,,
{16}
,,,,,,,,
1-3-1b[8:1],,,,,,,,
{16}
4xh[8:1],,,,4xh[8:1],,,,
56,,,56,,,56,,
{16}
8h[8:1]/7h[8:1],,,,8h[8:1]/7h[8:1],,,,
46,,,46,,,46,,
{16}
1h[8:1]/5h[8:1],,,,1h[8:1]/5h[8:1],,,,
78,,,78,,,78,,
{16}
6bpp4[16:8]/1bqq5[16:8],,,,,,,,
,,,,,,,,
{16}
Cf,,,,,,,,
,,,,,,,,
{16}
,,,,,,,,
,,,,,,,,
{16}
5/3h[8:8],,,,,,,,
,,,,,,,,
{16}
4h[8:8],,,,,,,,
,,,,,,,,
{16}
5>2[8:1],,,,56,,,,
8<5[8:1],,,,18,,,,
{16}
3>8[8:1],,,,34,,,,
6>3[8:1],,,,76,,,,
{16}
4/1,,1,,1,,1,,
2/6,,6,,6,,6,,
{16}
3,4,3,5,4,5,2,6,
3,4,3,6,5,6,4,7,
{16}
B1h[8:4],,,,,,,,
5x>2[8:1]*<8[8:1],,,,D6/A5f/D5/A6/A4,,,,
{16}
1bx,,2,4,3,,5/7,,
1>4[8:1],,4<7[8:1],,1,,,,
{16}
8bx,,2,1,3,,5/7,,
8<5[8:1]/4-8[8:1],,,,4/8,,,,
{16}
1bx,,7,5,6,,38,,
4>1[8:1],,1-5[8:1],,4,,,,
{16}
8bx,,7,3,5,,4/6,,
2>5[8:1]/1q2[8:2],,,,1/2,,,,
{16}
5xq6<1[16:7],,,,,,,,
,,,,,,5,,
{16}
7b/3b,,5,4,6,,3/5,,
2,,1<6[8:1]*p3[8:2],,6>3[8:1],,1x,,
{16}
D7/A6f/D6,,,,7x<4b[24:3],,,,
{24}
3bx>7[24:4],2bx<6[24:4],1bx<5[24:4],
{16}
,,,,,,
{32}
3bx,2bx,1bxp4[32:12],8bxq5[32:13],,,,,
,,,,,,,,
{16},,,,,,,,
{16}
3x/6x,,,,5,,2,4,
2,4,3,,4bz8[8:1]/5bs1[8:1],,3b/6b,,
{16}
4x/5x<4[8:3],,,,,,,,
,,,,6,,2,,
{16}
3x/5x,,6,,5/7,,2,8,
2,8,1,,34,,,,
{16}
7x/8x,,6,5,7,,2,1,
3,1,4,,28,,7,,
{16}
6x/5x,,7,8,6,,3,4,
2,4,1,,26,,,,
{16}
1x/8x,,3,4,2,,7,8,
5,4,7,,82,,3,,
{16}
4x/5x,,2,1,3,,6,5,
8,1,6,,75,,,,
{16}
E3h[8:4]/E4h[8:4]/B2/B4`A3,,,,,,,,
,,,,,,,,
{16}
E7h[8:4]/E8h[8:4]/B6/B8`A7,,,,,,,,
,,,,,,,,
{16}
B1h[8:4]/B3h[8:4]/A1/D2/A2/D3/A3`B2,,,,,,,,
,,,,,,,,
{16}
B5h[8:4]/B7h[8:4]/A5/D6/A6/D7/A7`B6,,,,,,,,
,,,,2?z6b[8:40],,,,
(137)
{16}
,,,,,,,,
,,,,,,,,
{16}
,,,,,,,,
,,,,,,,,
{16}
,,,,,,,,
,,,,,,,,
{16}
,,,,,,,,
,,,,,,,,
{16}
,,,,,,,,
,,,,,,,,
E
