&title=Cybernetic Vampire
&artist=void (Mournfinale)
&first=0.75
&des=Astral Fiber
&des_5=Astral Fiber
&lv_5=14+
&inote_5=(110)
{1},
{8}2h[8:1],Ch[8:1],,
{32}E3,B3,B4,B5,
{16}7p2[16:1]/B6,,,,,,1,8,7h[8:1],,5,6h[8:1],,4,5h[8:1],,3,4h[8:1],,2h[8:1],
{32}A1,A8,A7,A6,E2,E3,E4,E5,
{8}7h[4:1],,,
{32}E7,B6,B5,B4,
{16}2q7[16:1]/B3,,,,,8,8,1,2h[16:1],4h[16:1],3h[16:1],5h[16:1],4h[16:1],6h[16:1],5h[16:1],7h[16:1],5h[16:1],8h[16:1],4h[16:1],7h[16:1],
{24}D5,D4,D3,D6,D7,D8,
{8}1h[4:1],,,
{16}5h[32:1],5h[32:1],5h[4:1]/B3/E3,,,,,,2h[32:1],2h[32:1],2h[4:1],,8,,
{32}A6,D6,A5,D5,
{16}1h[4:1]/A4,,C,,
{24}6,5,4,3h[4:1],,,,,,
{8}Ch[4:1],,
{16},1,8,2,E8/B8,,
{24}3,4,5,1,8,7,2,3,4,
{16}1bh[4:1],,,,B2/E3,4,5,6,
{24}3,4,3,6,5,6,2,4,3,7,5,6,
{16}Cf,,,,2h[8:1],,7,,1h[16:3]/8b-2>3[16:1],7,,6h[16:3],8,,,,
{16}7h[8:1],,5,5,7h[8:1],3,3,,8h[16:3]/1b-7<6[16:1],2,,3h[16:3],1,,,,
{16}2h[8:1],,4,4,2h[8:1],6,6,,1h[16:3]/8b-2>3[16:1],7,,6h[16:3],8,,,,
{16}7h[8:1],,5,5,7h[8:1],3,3,,5bs1b[16:1]/7,6h[8:1],,3h[16:3],,,,,
{64}2bh[8:1]/6b-1[16:1],,,,,,,,,3,4,5h[32:7],,,,,A6,,,,,,,,,,,,,,,,
{64}7bh[8:1]/3b-8[16:1],,,,,,,,,6,5,4h[32:7],,,,,A3,,,,,,,,,,,,,,,,
{64}2b/6b-1b[16:1],,,,,,,,2-5[16:1],3,4,5h[64:5],,,,,A6,,,,,,,,A2,,,,,,,,
{64}7b/3b-8b[16:1],,,,,,,,7-4[16:1],6,5,4h[64:5],,,,,A3,,,,,,,,A7,,,,,,,,
{16}1b/2b,2,2/3,3,3/4,4,4/5,5,
{24}1b,2,3,4/7,6,5,
{64}2-6b[16:1],3,4,5,6,7,8,1,2,3,4,5,6,7,8,1V73-5[16:3],
{16}2h[4:1],,,,,,,,
{32}E1,E2,E3,E4,E8,E7,E6,E5,D1,D2,D3,D4,D8,D7,D6,D5,
{16}2h[8:1],,A1/E1,,3h[8:1],,4,,2v5[16:1],1,,1,2,,A8/D1,,
{16}7h[8:1],,A8/E1,,6h[8:1],,5,,7v4[16:1],8,,8,7,,A1/D1,,
{16}2h[8:1],,E8/B8,,3h[8:1],,4<7[16:1],,3-1b[16:1],3,4-8[16:1],3,3,,A4,,
{16}7h[8:1],,E2/B1,,6h[8:1],,5>2[16:1],,6-8b[16:1],6,5-1[16:1],6,6,,A5,,
{16}2h[8:1],,7b-3b[8:13],,1,,B6/B7,,8v5[16:1],6,,6,8,,A7/E8,,6,,1,,8,,B4/E5,,1>4[16:1],1,,8,1,,E1/B8,,
{16}7h[8:1],,E2/B1,,6h[8:1],,5>2[16:1],,6-8b[16:1],6,5-1[16:1],6,6,,A5,,
{16}2h[8:1],,E8/B8,,3h[8:1],,4<7[16:1],,3-1b[16:1],3,4,3,3,,6,,
{32}A1/5b>6[4:1],D2,A2,D3,A3,D4,A4,D5,
{24}A5/6V82-4b[4:1],E7,B7,B8,B1,E2,,,,,,,
{16},8,8,8,
{32}A8/4b<3[4:1],D8,A7,D7,A6,D6,A5,D5,
{24}A4/3V17-5b[4:1],E3,B2,B1,B8,E8,,,,,,,
{16},1,1,1,
{32}A1/5b>6[4:1],D2,A2,D3,A3,D4,A4,D5,
{24}A5/6V82-4b[4:1],E7,B7,B8,B1,E2,,,,,,,
{16},8,8,8,
{32}A1/5b>6[16:3],D2,A2,D3,A3,D4,A4,D5,A5/7h[4:1],,,,,,,,
{32}4-2<1[16:1],5,4-6<7[16:1],,4-8[16:1],,B6/B5,,,,,,,,,,
{32}A1/5bq1[4:1],D2,A2,D3,A3,D4,A4,D5,
{24}A5/1V35[16:3]*>5[16:3],D1,D8,D7,D6,D5,,,,,,,
{16},8,8,8,
{32}A8/4bp8[4:1],D8,A7,D7,A6,D6,A5,D5,
{24}A4/8V64[16:3]*<4[16:3],D1,D2,D3,D4,D5,,,,,,,
{16}Chf[8:1],,,,
{32}A1/5bq1[4:1],D2,A2,D3,A3,D4,A4,D5,
{24}A5/1V35[16:3]*>5[16:3],D1,D8,D7,D6,D5,,,,,,,
{16},8,8,8,
{64}8,7,6h[32:3],,,,,,3h[16:1],,,,1,8,7h[32:5],,,,,,,,,,3,4,5h[32:3],,,,,,1h[16:1],,,,4,5,6h[32:3],,2h[16:1],,,,,,,,
{48}2/6,1/5,4/8,3/7,2/6,5,4,3,2,1,8,7,
{64}2bqq1[2:3]*pp3[2:3]/6b,B2f,C,B6,,,,,,,,,,,,,
{4},,,,,,,
{8}2b-6b[8:5],,,8h[4:1],,,4h[4:1],,8z4[2:1],,,,2h[16:3],,,,
{8}7b-3b[8:5],,,1h[4:1],,,5h[4:1],,
{24}E3,E4,A4,E7,E6,A5,D2,D3,D4,D8,D7,D6,E1,E2,E3,E4,E5,E6,D1,D2,D3,D4,D5,D6,
{8}2b-6b[8:5],,,8h[4:1],,,4h[4:1],,8p5[4:1],,,,
{32}1,2,3,4,8,1,2,3,7,8,1,2,4,5,6,7,
{32}8b/2b>5[16:1],,,,,,,,5,6,7,8,6,7,8,1,
{4}2bv4b[16:1]/6bv8[16:1],C/B4/B8/B2/B6,
{16}7bp2[16:1],5h[8:1],,,B5/B4,,,,2bh[4:1],4h[8:1],,,
{48}D3,E3,B3,C,B7,E7,D7,,,,,,
{16}1b-5[16:1],,5v8[16:1]*v2[16:1],,1qq7[16:1]*pp3[16:1],,,,,,8,,8h[8:1],2,2,2,
{8}1/2>5[16:1],1/8<5[16:1],1/2-6[16:1],1/8-4[16:1],1/2,1/8,
{64}E2,E1,E8,E7,E6,E5,E4,E3,2xh[8:1],,,,,,,,
{8}7<4[16:1],1>4[16:1]/8,7-3[16:1]/8,1-5[16:1]/8,7/8,1/8,
{16}7h[4:1],2,2,2,
{8}2>5[16:1],1/8<5[16:1],1/2,1/8,
{16}A4/D4,A8/D8,A2/D2,A6/D6,
{32}2,4,3,4,2,4,3h[16:1],,
{8}7v4[16:1],3v8[16:1]/5,7-2[16:1]/4,3-6[16:1]/5,1/7,1/3,
{16}7h[16:3],2,2,2,
{8}2v5[16:1],6v1[16:1]/4,2-7[16:1]/5,6-3[16:1]/4,8/2,8/6,
{64}E1,E8,E7,E6,E5,E4,E3,E2,1xh[8:1],,,,,,,,
{8}7v4[16:1],3v8[16:1]/5,7-2[16:1]/4,3-6[16:1]/5,1/7,1/3,
{16}7h[8:1],2,2,2,
{64}3b/7b,4/6,5h[32:3],,,,,,,,,,2b/6b,3/5,4h[32:3],,,,,,,,,,2b/8b,3/7,4/6,5h[64:5],,,,,,,,,7b/1b,6/2,5/3,4h[64:5],,,,,,,,,
{16}1b>4[16:1]/7b<4[16:1],,,,
{16}1/7,,,,A7/E8/B8f/E1/A1,,
{32}E3,B3,B4,B5,
{16}7p2[16:1]/B6,,,,7,,1-3[16:1],8,7h[8:1],,1,6h[8:1],,4-8[16:1],7h[8:1],,3h[8:1],4,,2h[8:1],
{32}1,8,7,6,5/8,1,2,3,
{8}7h[4:1]/4,,D1/E1,
{32}E7,B6,B5,B4,
{16}2q7[16:1]/B3,,,,2,8,8,1,2<7[16:1],4,3,5,2/6q3[16:1],5,4,3,6,2,1,8,
{24}2,4,3,7,5,6,
{12}2b-5[16:1]/7-4b[16:1],1/8b,1b/8,
{96}2/7b,Cf,B5/B4/E5,,,,,,,,,,
{32}D4,A3,D3,A2,
{16}7h[4:1]/D2/E2,,,,,,
{32}1,2,3,4,5h[4:1],,,,8,,
{32},,E8,E7,E6,E5,
{16}1h[4:1]/E4,,C,,
{24}4,3,5,4h[4:1],,,,,,
{24}7b-3b[16:1],5b,5b,6b,4b,4b,
{16}7b/Cf,,2h[8:1],,E8/B8,,
{24}3,4,3,5,4,5,2,4,2,
{16}6bh[4:1],,,,1,2,3h[16:1],7h[16:1],
{24}2,4,3,7,5,6,
{32}1,4,2,5,3,6,4,7,
{4}5bV31-6[4:5]*V71-4b[4:5],,,,,,,E2/E4/E6/E8,
{8}1b/7b-4[16:1],3v8[16:1]/5,1/7,3,6-1[16:1],2v5[16:1]/8,4/6,2,
{16}7b,7,7/5,5,5/4,4,4/2,2,
{24}1,5,3,8,4,6,2,5,8,6,4,1,Cf,
