&title=Rrhar'il
&artist=Team Grimoire
&first=1.34
&des=Colin
&lv_5=14+
&inote_5=(190)
{4}5bx/4bx>5[6:9],B5,B6,B7,
B8,B1,B2,{8}B3,C,
{4}4/5<4[6:9],B4,B3,B2,
B1,B8,B7,{8}B6,C,
{8}5/6x,,,3/4x,,,2,2,
{16}2h[16:9]/4x,,,1,,,8,,,7,,,{16}5,6,5,6,
{16}5b,,,18,,,12,,1b,8b,1b,8b,{4}1b-3-5-7-1[1:1],
{1}1x,5x-3>8-6-4b[4:3],
{16}2x,3x,4x,5x,7,6,5,4,{24}1x,2,3,7x,6,5,2x,3,4,8x,7,6,{2}1b/5b``B1``Cf``B5,
{8}3x>8[8:1]/5,{16}2,4,{8}3,5,
64,{16}7,,{8}6,5,6x<1[8:1]/4,{16}7,5,{8}6,4,
3/5,{16}2,,{8}3,4,7x-4[8:1]/1,{16}6,8,{8}7,1,
28,{16}3,,{8}2,1,2x-5[8:1]/8,{16}3,1,{8}2,8,
7bh[4:1]/1,,{16}1,1,1,,3,3,3,,5,5,5,,
{8}76,78,81,12,32,,{16}4,7,4,6,
4,5,4,3,4,2,4,1,4,8,4,7,4,6,4,5,
1b,2,3,4,8b,7,6,5,{32}1b,2,3,4,5,6,7,8,
{4}1-6[8:1]*z5[8:1],1b,Ch[8:1],{8}3x-8[8:1]/5,{16}2,4,{8}3,
5,64,{16}7,,{8}6,5,6x-1[8:1]/4,{16}7,5,{8}6,4,
2xh[24:1],3h[24:1],4h[24:1],5h[24:1],6h[24:1],7h[24:1],8h[24:1],1h[24:1],
{16}7b,6,5,4,1b,2,3,4,{32}8b,7,6,5,4,3,2,1,{4}8w4b[8:1],
8b``B8``Cf``B5/B4/B3,7h[8:1]/1,{8}2x>5[8:1]/8,{16}3,1,{8}2,
8,71,{16}6,,{8}7,8,7x<4[8:1]/1,{16}6,8,{8}7,1,
{16}7x/C,,,1/C,,,8x/B3/B4,,2x/B5/B6,,,7x/E4/B3/B4,,,3x/E7/B7/B6,,
{4}5x/4x,3x/6x,{12}7x/2x,72,36,36,45,45,
{8}3b/6b<1<5[2:1],,6,4,3,,B1/E2/B2,,
3>8>4[2:1]/4,,3,5,6,,B8/E8/B7,,
{16}8x,4,7,3,6,2,5,1,4x,8,5,1,6,2,7,3,
8x,7,6,5,48,3,2,1,84,,6x-1[8:1],5,5,,6x,,
{8}2>5>1[2:1],,2,8,7,,B5/E6/B6,,
7<4<8[2:1]/8,,7,1,2,,B4/E4/B3,,
{16}1x,5,2,6,3,7,4,8,5x,1,4,8,3,7,2,6,
1x,2,3,4,5x/1,6,7,8,1x/E6,B5,B4,E4,E8,B8,B1,E2,
Cf,,7x,5,6,4,5,3,4,2,5,1,8-4[8:1],3,7,2,
8b``B8``C``B4,,,,2,1,2,,{8}87,87,12,12,
{16}2x,4,3,5,4,6,5,7,4,8,3,7,1w5b[8:1],8,2,7,
1b``B1``C``B5/B4/B6,,,,7,8,7,,{16}3x,B8,3,B7,3,B6,3,B5,
3b,,6x,5,{8}6,7h[8:1],{16}3,4,3,4,5,6,5,6,
2bx``B2,,,,3,5,4,6,5,1,8,3,6,1,8,3,
{8}1b``B1,6,6,3b``B3,7,7,2b``B2,6,
{16}1b``B1,,6x,6,8hb[8:1],,7x,7,1hb[8:1],,8x,8,2hb[8:1],,1x,1,
{8}3b/Cf,,,7x/8x,{16},,2x,1x,2x,,3x/8x,,
,,6x/5x,6x/5x,,,8x/1x,,,3x/4x,3x/4x,6x/5x,6x/5x,,7x/8x,7x/8x,
6x/1xh[8:1],,,,,C,,6x/5x,5x/6x,,6x/7x,6x/7x,,3x/2x,3x/2x,,
4x/3x,,,C,,8x,7x,6x/5x,5x/6x,,,2hx[16:3],,,3hx[8:1]/4x,,
8xw4b[8:1],,,,8b,,,,1x/2x,1x/2x,,7x/8x,,,2hx[8:1]/C,,
5hx[4:1],,3x,2x,1x,,8x/7x,,,,8x/7x,,7x,6x,5x,,
1bx/B7f,,,1bx/B6,,,1b/B5,,3x/4x,3x/4x,,7x/8x,7x/8x,,1x/2x,{48}1x/2x,8x/3x,4x/7x,
{2}5xh[2:1]/6x,Ch[2:1],
1-3-5[2:1],{8}5-7-1[2:1],,8,8,
1-3-5[2:1],,{4}3,5-7-1[2:1],7,
1-3-5-7-1[1:1],6,7,8,
6h[4:1],{8},2,{4}2h[2:1],{8}4,6,
8-6-4[2:1],,{4}6,4-2-8[2:1],2,
8-6-4[2:1],4,2,{8}3,2,
{2}1h[2:1]/Cf,{16}7,6,5-8[8:1],,4,,5,,
{4}2hx[1:1],,5<5^6-8^1-3^4-6^7-1^2-4^5-8b[4:10],,
{1},,1^7^5^3^1[2:3]*-7-5-3-1b[2:3],,
{16}4bx/5bx,45,45,,4bx/5bx,45,,4bx/5bx,45,,4bx/5bx,45,4-2-8-6-4b[1:1]/5>5-3-1-7-5<5[2:5],45,45,45,
{1}4b/5b,,,
{48}1b/8b,72,63,54,,,{8},{24}1>4[8:1],,,4,5,6,71,,,6x,5x,4x,3x,2,1,8,7,6,
{4}5/1h[4:1],{16}5,6,7,8,1x/4,3,2,1,8,7,6,5,
48,,7x,7,3,3,5,5,7,7,1,1,3,3,5,5,
{4}1x>4[8:1],{16}15,6,7,8,{4}1<6[8:1]/5,{8}1/4w8[8:1],3,
4b,,,1,{24}1<5[8:1]/5>1b[8:1],26,73,84,,,A4/A8,A7/A3,A6/A2,A5/A1,,,
8b>4>1[8:3]/4,,,,,,8/4,5,6,7,,,8x,7,6,5,,,{4}Cf,
{16}3b/8h[16:1],,3b,7h[8:1],3b,,3b,6h[8:1],3b,,3b,5h[8:1],3b,,3b,,
6b,5,6b,5,6b,5,6b,5,{32}8b,1,2,3,{16}5hx[16:1],,{32}8b,7,6,5,{16}1hx[16:1],,
{4}Cf,{24}8<5[8:1],,,5,4,3,28,,,3x,4x,5x,6x,7,8,1,2,3,
{4}4/8h[4:1],{16}4,37,62,15,{4}8x>4b[8:1]/4x<8[8:1],,
{4}8b<5[8:1],{16}84,3,2,1,{8}8>3[8:1]/4,2,8/5-1b[8:1],6,
5b,,{16}2q5[4:1],,2,8,{4}2b,C,
{32}8b/1,2,3,,,,8b/1,2,3,,,,8b/2,3,4,,,,8b/2,3,4,,,,8b/2,3,4,,{16}6x,5,
6,,3x/4x,3x/4x,,7x,8x,7x,8x,,1x/2x,1x/2x,,18,27,36,
{8}4b/5b,7b/1b,,3b/5b,2b/8b,,5b/4b,8b/1b,
{6}7bh[8:1]/2bh[8:1],3bh[8:1]/6bh[8:1],4bh[8:1]/5bh[8:1],{16}E2,E6,E4,E8,B3/E3,B7/E7,B1/E1,B5/E5,
{4}Cf,{24}8h[8:1],,,2,3,4,{8}5>2[8:1]/1,3,5/8-4b[8:1],7,
8b,,{16}3x-8[8:1],,8,7,6/3-5[8:1],,6,,6/3>8[8:1],7,8,,
3b/6,,,,6x-1[8:1],,1,2,3/6-4[8:1],,3,,3/6<1[8:1],2,1,,
{4}6b,2bh[8:1],{16}6h[8:1],,8,7h[8:1],,1,8,,
{8}2bh[4:1]/7bh[4:1],,,3,,{16}1/2-5b[8:1],8,{8}7p4[4:1],2,
7b,,C,,{24}36,2,1,8,7,6,3,2,1,8,7,6,
{16}1b,,6,5,6,5,6,,1b,,6,5,6,5,6,,
7b,6,5,6,8b,5,4,5,{32}1b,8,7,6,5,4,3,2,1b-5[8:1],8,7,6,5,4,3,2,
{4}1bx``B1``Cf``B5,{24}3h[8:1],,,7,6,5,{8}4<7[8:1]/8,6,4/1-5b[8:1],2,
1b,,{16}6x-1[8:1],,1,2,3/6-4[8:1],,3,,3/6<1[8:1],2,1,,
6b/3,,,,7,5,6,3,4,2,8,1,8,1,8,1,
{48}7b,E7,B6,B5,E5,,,,2b,D3,A3,D4,A4,,,,8bh[16:1],,,,,,,,{12}1x/2x,12,12,8xz4b[8:1]*-5[8:1]/7x,87,87,
{8}7b/8b,,{16}4x,5x,4,5,3,6,3,6,2,7,2,7,
1b,8,2b,7,1b,8,2b,7,
{24}3x/4x,2x,1x,7x/8x,6x,5x,34,2,1,78,6,5,
{16}4bx,3,{24}4,3,4,3b,4,3,{32}4,3,4,3,4bx,3x,4x,3x,4x,3x,4x,3x,{24}4bx,3x,4x,3x,4x,3x,
{24}6bx,7,8,1,2,3,4x/8x,15,26,37,4x/8x,1x,2,3,4,5,6,7,{32}3x,2,1,8,7,6,5,4,
{64}3b>4b[4:14]/7b<3>4[4:14],E3/E7,B2/B6,B1/B5,E1/E5,{16},,,{4},,,{1},,,{64}1b,B1,Cf,
