&title=ピアノ協奏曲第1番蠍火
&artist=virkato
&first=0
&des=reflectW
&lv_4=12+
&inote_4=(185)
{1},
{32},1b/8b,2V41[2:5]/7,3/6v7[2:5],,,,,,,,,,,,,,,,,,,,,,,,,,,,,,
{1},,
{2},46,
{2},71,
{4},3,25,,
{1},
{12},,,17,,,,,,,,1,
{24}7,,2,,6,,3,,,,,,,,,,,,{96},,,,,4,,,,,,,,5,,,,,,,,,3,,
,,,,,,,6,,,,,,,,,2,,,,,,7,,,,,,,,,1,,,,,,,,,,8,,,,,,,,,,,,,27,,,,,,,,,,,,,,,,,,,,,,,,,,,,,,,,,,,,,,,,,,
{96},,,,,,,,,,35,,,,,,,,,,,,,,,,,,,,,,,,,,,,,,,,,,,,,,,,,,,,,,,,,,,,,,,,,,4bw8[4:3],,,,,,,,,,,,,,,,,,,,,,,,,,,,
{1},
{16}1b/8b,,,,,,,,1,8,1,8,2,7,2,7,
3,6,3,6,4,5,4,5,3b,,6,4,6,4,6,4,
6,,37,,46,,5,,4,5,4,5,3,6,3,6,
2,7,2,7,1,8,1,8,2b,,7,1,7,1,7,1,
7,,26,,35,,4,,4,,6,5,6,5,7,4,
7,4,8,3,8,3,1,2,1,2,8,3,7,4,6,5,
6,5,6,,3,4,3,4,3,,,28,28,,,,
1,2,3,4,5,6,7,8,1,5,1,6,1,5,1,6,
1,5,1,6,1,5,1,6,,,45,,,,4qq1[2:3]/5pp8[2:3],,
{1},
{1},
{8},,3,6,4,,6,,
{8}4,,5,,3,,6,,
{8}2,,5,,6,,4,,
{8}3,,5,,6,,3,,
{8}2,,15,,3,3,24,,
{8}6,6,57,,4,4,71,,
{8}5,5,82,,2,2,8,8,
{8}4,4,6,,16,,37,,
{8}45,,28,,1>1[1:1]/7,,,,
{8},,1,,1>1[1:1],,,,
{8},,1,,1>1[1:1],,,,
{8}7,,8,,1>1[1:1],,,,
{8}7,,8,,1>1[1:1],,,5,
{8},,1,,1>1[1:1],,6,,
{8}7,,8,,1>1[1:1],,,5,
{8},,1,,1>5[2:1]*<5[2:1],,,,
{8},,,,{12}5,4,4,5,3,3,5,
2,2,5,1,1,6,1,1,6,2,2,
6,3,3,6,4,4,6,5,5,6,7,
7,6,8,8,6,1,1,6^1[4:1],,,1^4[4:1],,,
4^7[4:1],,,7,,,3,4,3,6,5,6,
3,4,3,6,5,6,2,4,3,7<8[12:5],5,6,
{24}4,,,,,,,,,,,,7,,6,,5,,43,,,,,,
2,,3,,4,,56,,,,,,6b,,6,,6,,5b,,5,,5,,
4b,,4,,4,,3b,,3,,3,,2b^7[2:1],,,,,,,,,,,,
7^4[2:1],,,,,,,,,,,,4^1[2:1],,,,,,,,,,,,
1,,,,,,,,,,,,{32}1b/8b,,,,,,,,
(165)
{12},,,2,6,4,
(177)
{16}5,3,5,3,5,,1,,28,,37,,
(184)
{16}4b/6b,,4b/6b,,,,2,4,3,5,2,4,3,5,2,,
{16}16,,16,,7,8,6,1,5,2,4,3,8,7,6,,
{16}34,,34,,2,1,3,8,4,7,5,6,1,2,3,,
{16}7b/5b,,,8,4,7,3,6,2,5,1,6,2,7,3,8,
{16}4,,,,28,,,,1,7,1,6,1,5,1,,
{16}8,,,,17,,,,8,2,8,3,8,4,8,,
{16}1,,,,2,3,4,5,8,7,6,5,2,3,4,5,
(180){16}1,8,7,6,1,2,3,4,1,8,7,6,1,2,3,4,
(168){16}8,7,6,5,4,3,2,1,
(172){16}84,,37,,26,,15,,
(174){16}4b/8b,,4b/8b,,,3,5,3,1,3,5,3,1,3,6,3,
{16}8,,26,,,6,4,6,8,6,4,6,8,6,3,6,
(177){16}1,,15,,2,1,2,8,
(178){16}2,7,2,6,
(179){16}2,5,2,4,
(184){16}2,,6,5,6,7,6,5,6,,3,4,3,2,3,4,
{16}3,,,,28,,,,1,5,1,6,1,7,1,,
{16}37,,,,17,,,,8,4,8,3,8,2,8,,
{16}1b/8b,,,,2b/7b,,,,3b/6b,,,,4b/5b,,,,
{16}2b/7b,2b/7b,,3b/6b,,2b/7b,,1b,8,2,7,3,6,4,5,,
(186){16}3b/6b,,4,5,4,5,4,,2b/7b,,1,8,1,8,1,,
{16}3b/5b,,4,5,4,6,4,,4b/6b,,5,4,5,3,5,,
{16}3b/8b,,2,1,2,7,2,,1b/6b,,7,8,7,2,7,,
{16}1b/5b,,2,4,3,5,4,,4b/8b,,7,5,6,4,5,,
(188){16}25,,25,,{24}3,4,3,4,,,{16}74,,74,,{24}6,5,6,5,,,
{16}38,,38,,{24}2,1,2,1,,,{16}61,,61,,{24}7,8,7,8,,,
(178){16}4,,,,3,,,,
(179){8}2,,17,,8,1,7,2,
{8}6,3,5,4,5,,6,,
{16}7,,,,82,,,,1,,8,,2,,7,,
{8}3,6,4,5,4bw8[1:1],,,,
{1},
(182){4},4b/5b,4b/5b,{16}1,2,3,4,
(188){16}5,,,,8,7,6,5,4,,,,12,3,4,5,
{16}6,,,,87,6,5,4,3,,,,12,8,7,6,
{16}54,,,,87,1,2,3,45,,,,{12}1,28,37,
{12}46,5,5,4,6,6,3,7,7,1,8,8,2,
{12}1,1,4,8,8,3,7,7,5,6,6,
4,5,5,2,1,1,
(90)
{32}28,,,,{64}1>1[4:17],28,37,64,5,,,,{32},,,,,,,,
{32},,,,,,,,,,,,,,,,
{32},,,,,,,,6,,,,,,,,
{32},,,,,,,,5,,,,,,,,
{32},,,,4,,,,,,3,,,,,,
{32},,,,,,,,,,,,,,,,
{32},,,,,,,,,,3,,,,,,
{32},2,,,,2,,,,4,,,4,,,,
{32},,,,,,,3,,,,,,4,,,
{32},,,,5,,,,,,,,,,,,
{1},,,,E
