&title=Calc.
&artist=ジミーサムP
&first=0.103
&des=布衣
&lv_4=1
&lv_5=13
&inote_4=(173){4},
E
&inote_5=(173){4}3h[4:1]/7h[4:15],,{2}4h[4:1],
5h[4:1],6h[4:1],
3h[4:1],4h[4:1],
5h[4:1],6h[4:1],
{4}7/3h[4:1],7,7/4h[4:1],7,
7/5h[4:1],7,7/6h[4:1],7,
7/3h[4:1],7,7/4h[4:1],7,
{8}4,6,4,{16}5,4,{2}3/6,
{8}2-6[8:1],2,8,8,7-3[8:1],7,{4}1,
{8}2-5[8:1],2,8,8,7-4[8:1],7,{4}1,
{8}3-7[8:1],3,5,5,6-2[8:1],6,{4}4,
{8}3-8[8:1],3,5,5,6-1[8:1],6,{4}4,
{8}2>5[8:1],2,1,8,7<4[8:1],7,{4}8,
{8}2v5[8:1],2,1,8,7v4[8:1],7,{4}8,
{8}3>8[8:1],3,4,5,6<1[8:1],6,{4}5,
{8}3v8[8:1],3,4,5,6,7,{4}8b/1b,
2,4/3,{8}3,4,{4}5/2,
2,4/3,{8}4,3,{4}5/2,
7,5/6,{8}6,5,{4}4/7,
7,5/6,{8}5,6,{4}4/7,
3,1/2,{8}1,1,{4}8/3,
3,1/2,{8}2,2,{4}8/3,
6,8/7,{8}8,8,{4}1/6,
6,8/7,{8}7,7,{4}1/6,
3/5,4,{8}2-4[8:1],1,{4}2,
{8}7-4[8:1],8,{4}7,{8}1-5[8:1],8,{4}1,
6/4,5,{8}7-5[8:1],8,{4}7,
{8}2-5[8:1],1,{4}2,{8}8-4[8:1],1,{4}8,
3/5,4,{8}2-4[8:1],1,{4}2,
{8}7-4[8:1],8,{4}7,{8}1-5[8:1],8,{4}1,
3b/6b-1[8:1],6b/3b-8[8:1],3b/5b-1[8:1],5b/4b-8[8:1],
{8}4b,{16},,,,,,,,4,5,{4}6/3,
{8}2>5[8:1],2,6<1[8:1],6,3v8[8:1],3,5-1[8:1],5,
{4}2V46[4:1],{8}2,1,8,7,{4}8-4[8:1],
1-5[8:1],2-6[8:1],3pp4[4:1]*V14[4:1],3,
{8},,6/5,4,3/5,2,{4}6/1,
{8}7<4[8:1],7,3>8[8:1],3,6v1[8:1],6,4-8[8:1],4,
{4}7V53[4:1],{8}7,8,1,2,6pp5[4:1],3,
{4}6,{8}4qq5[4:1],4,,6,7,8,
7/1,{16}5,4,{8}6,{16}3,5,{8}4,{16}7,4,{8}6,{16}3,5,
{8}2-5[8:1],2,6-1[8:1],6,3v8[8:1],3,5-1[8:1],5,
{4}2>6[4:1],{8}2,1,8,7,{4}6-2[8:1],
5-1[8:1],4-8[8:1],3qq8[8:3],3,
,7,{16}5,3,5,3,6,4,6,4,
{8}7-4[8:1],7,3-8[8:1],3,6v1[8:1],6,4-8[8:1],4,
{4}7<3[4:1],{8}7,8,1,2,3>8[8:1],4,
{4}3,{8}6<1[8:1],6,,4>1[8:1]*<7[8:1],4,4bpp7[8:5]*qq1[8:5],
,,,,,,,,8/2,
3,6/4,5h[4:1],,3,3p7[8:1],3h[4:1],
,,6p2[8:1],6h[4:1],,,4v7[8:1],4h[4:1],
,,5v2[8:1],5h[4:1],,,1-5[8:1],1,
,7-3[8:1],4,7,,,5/3,4,
4/6,7,2/8,1,,2,3V17[8:1],3h[4:1],
,,6V82[8:1],6,,5,{4}4,
{16}4,5,4,5,3,5,3,5,3,6,3,6,2,6,2,6,
2,7,2,7,1,7,1,7,{4}1b,8,
{2}7,4/5<8[4:1],
{4}3,2,{2}8/1>4[4:1],
6,4/5v8[4:1],
{4}3,2,{2}8/1v4[4:1],
6,4/5-1[4:1],
{4}3,2,{2}8/1-5[4:1],
6,{4}8/1,2,
{8}3,6,4,7,{4}5,{8}6,6,
{2}6,4/7>2[4:1],
{8}3,4,{4}3,{2}7/3<6[4:1],
8,3/7v2[4:1],
{8}3,4,{4}3,{2}7/3v6[4:1],
8,3/7-2[4:1],
{8}3,4,{4}3,7/3-6[8:1],3,
8,{8}6,7,8,1,2,3,
4b/5b,4b/5b,,,,,,,3>8[8:1],
3,7<4[8:1],7,2v5[8:1],2,8-4[8:1],8,
{4}3V17[4:1],{8}3,4,5,6,{4}5-1[8:1],
5/4-8[8:1],4/3-7[8:1],3/2qq6[8:3],2,
{8},,7/8,1,2/8,3,{4}7/4,
{8}6<1[8:1],6,2>5[8:1],2,7v4[8:1],7,1-5[8:1],1,
{4}6V82[4:1],{8}6,5,4,3,{4}5q7[4:1],
5,{8}2q3[4:1],2,,7,6,5,
7/3,{16}5,4,{8}6,{16}3,5,{8}4,{16}7,4,{8}6,{16}2,5,
{8}3-8[8:1],3,7-4[8:1],7,2v5[8:1],2,8-4[8:1],8,
{4}3>7[4:1],{8}3,4,5,6,{4}7-3[8:1],
7/8-4[8:1],8/1-5[8:1],1/2pp5[8:3],{8}2,8,
,,{4}6,{16}8,2,8,2,7,1,7,1,
{8}6-1[8:1],6,2-5[8:1],2,7v4[8:1],7,1-5[8:1],1,
{4}6<2[4:1],{8}6,5,4,3,{4}2,
{8}3/5,3,6/4,6,5/2,2,7/4,7,
{1}3bqq5[8:9]/6bpp4[8:9],
{16},,,,,,,,,,4,5,{4}6/3,
{8}7-4[8:1],8,1,2,3-8[8:1],4,{4}5,
{8}5<8[8:1],4,3,2,1>4[8:1],8,{4}7,
{8}7v4[8:1],8,1,2,3v8[8:1],4,5,6,
{4}7b-4[8:1],7b/3b-8[8:1],3b/6b-1[8:1],2b/6b,
{8}3/8,7,1/6,2,3/8,7,1/6,5,
7/4,3,2/5,6,4/7,3,{4}2/5,
{16}7/8,,,2/3,,,{8}5/6,{16},8/1,,,{4}4/3,
{8}4/5,4/5,3/6,6/3,2/7,2/7,1/8,1h[8:5]/8h[8:5],
{32},,,,,,,,,,,,,,,,,2/7,3/6,4bqq8[32:117]/5bpp1[32:117],{1},,,,{16},,,7s3[4:1],
E
