&title=SAN値直葬
&artist=STEAKA
&first=1.5
&des=Violency
&lv_5=14+
&lv_7=14+?
&inote_5=(168)
{16}2<7-3<6[8:4]/6h[8:1],,,,6h[8:1]
,,,,6h[32:3],,,7h[32:3],,,7h[16:1],,
{16}3-7<6-1-4[8:4],,8h[32:3],,,8h[32:3],,,8h[32:3],,,8h[32:3],,,8h[16:1],,
{16}5-7-3-1[8:4]/7h[8:1],,,,6h[8:1],,,,8h[8:1],,,8h[8:1],,,8h[8:1],{128}E2,B2,B3,E4,E8,B7,B6,E6,
{32}4hx[16:1],5hx[32:3],,,,,4hx[32:3],,5hx[96:5],{48},,4hx[24:1],5hx[24:1],,,4hx[24:1],5hx[24:1],,,4x>1[8:1],5hx[24:1],,,4hx[24:1],5hx[128:5],,,{128},,,,,,,,,,,,,,,,,,,,,,,,,,,,,,,,,,,,,,,,,,,,
{8}7/8,6,7/8,1,6/1,4,6/1,3,2/4,3/5,4/6,5/7,5-8[8:1]/4z8[8:1],5/4,,,
{8}7/1,5,7/1,3,8/2,6,8/2,4,8/4,6/2,1/5,7/3,8b-5[8:1]*>5[8:1],8b,8b,,
{8}8h[8:1]/1,6,8/1h[8:1],3,7/8h[8:1],4,1h[8:1]/2,5,8/1,8/7,8/1,2/1,1/8-5[8:1]*z4[8:1],1/8,,,
{16}6/3,,7,,6/3,,7,,6/3,,2,,6/3,,2,,
{16}2/6,,3/7,,6/2-6-2[8:2],,,,2v4-2[8:1]/6v8-6[8:1],,,,,,Ch[16:1],,
{16}8,,8h[16:3],,7,,7h[16:3],,5,,5h[16:3],,6,,6h[16:1],,
{16}7/5,,7h[16:1]/5h[16:1],,8-5-8[8:2]/6-3-6[8:2],,8/6,,,,,,,,,,
{16}1,,1h[16:3],,3,,3h[16:3],,4,,4h[16:3],,2,,2h[16:1],,
{16}1/4,,1/4,,1-3[8:1]/4-2[8:1],,,,1<4[8:1]/4v6[8:1],,,,1/4,,,,
{8}1h[16:1],1h[16:1],2h[16:1]/8h[16:1],8h[16:1]/2h[16:1],3h[16:1]/7h[16:1],7h[16:1]/3h[16:1],4h[16:1]/6h[16:1],6h[16:1]/4h[16:1],
{16}3,7,3,7,2,8,2,8,{32}1,2,3,4,1,2,3,4,1,8,7,6,1,8,7,6,
{16}1bp5b[42#32:1]/5h[8:6],,,,,,,,,,,,,,,,
{64}1bq5b[8:1],8,7,6,5,,,,,,,,,,,,1bw5b[8:1],2,3,4,5,,,,,,,,,,,,A1,E1/E2,B1,B8/B2,B7/B3/Cf,B6/B4,B5,E6/E5,A5,,,,,,,,,,,,,,,,,,,,,,,,
{16}7x,8x,5,4,7x,8x,3,2,7x-4[8:1],8x,4-1[8:1]*-1[8:1],3,,,,,
{16}2x,1x,4,5,2x,1x,6,7,2x-5[8:1],1x,5-8[8:1]*-8[8:1],6
,,,,,
{16}1hx[16:1],,2/8,3/7,4/6,,2,1,3,8,4,7,5h[8:1]/6-8[8:1]*-1[8:1],,6,,
{16}6-4[8:1]*-3[8:1],,5,5,6,,7,,{32}7b-4[8:1]/4b-1[8:1],6,5,4,3,2,1,8,7b/4b,,,,,,,,
{16}1bx/7bx,,8,8,1bx/7bx,,1xh[32:1],7xh[32:1],2xh[32:1],6xh[32:1],3x-8[16:1],5x-8[16:1],3b,,5b,,
{16}1b-5b[8:1],7,3,5,1b,,8h[32:1],2h[32:1],7h[32:1],3h[32:1],6x-1[16:1],4x-1[16:1],6b,,4b,,
{32}8b,7,6,,4hx[8:1],,,,8b-5[12:1],1,2,,4hx[8:1],,,,8b-3[12:1],,,,4hx[8:1],,,,8b-6[12:1]*-5[12:1],,,,4hx[8:1],,,,
{32}8b-2[12:1]*-3[12:1],,,,4hx[8:1],,,,8<4[12:1]*V64[12:1],,,,4hx[8:1],,,,8>4[12:1]*V24[12:1],,,,4hx[8:1],,,,8bw4b[8:1],,,,4hx[16:1],,,,
{16}8b,,,,1b/2b,,4,3,5,4,6,,7b/8b,,5,6,
{16}4,5,3,,8b/2b,,8h[16:1]/2h[16:1],,{24}3b/7bh[24:4],4,5,6,,8,1b/7b,2h[24:4]/6,5,4,3,,
{16}1bxV75[8:1]*p5[8:1],1bx,1bx,1bx,1bx,,2,3,2,3,2,,5/8,,7,6,
{16}7,6,7,,1/4h[16:3],,8,,{32}8,7,6,5h[32:5],4,3,2,1h[32
:5],,6,7,8h[32:9],,2,3,4h[32:5],
{32},,,,E8/E4,B7/B3,B6/B2,E6/E2,{16},,8,7,1,8,2,,3b/4b,,1,2,
{16}8,1,7,,4b/6b,,4h[16:1]/6h[16:1],,{24}7b/3bh[24:4],8,1,2,,4,5b/3b,6h[24:4]/2,1,8,7,,
{16}5bxV31[12:1]*p1[12:1],5bx,5bx,5bx,5bx,,6,7,6,7,6,,1/4,,3,2,
{16}3,2,3,,5/8h[16:3],,4,,{32}4,3,2,1h[32:5],8,7,6,5h[32
:5],,2,3,4h[32:3],,6,7,8,
{16}1b>2<7-3[4:6]/5b<6>3[4:6],,,,,,,,,,,,,,,,
{16},,,,,,,,,,,,,,,,
{16}3b-8-5[4:6]/5b<6-2[4:6],,,,,,,,,,,,,,,,
{16},,,,,,,,,,,,,,,,
{16}8b-6-8[4:6]/2bV48[4:6],,,,,,,,,,,,,,,,
{16},,,,,,,,,,,,,,,,
{16}7-5[8:1],,,,8-4[8:1],,,,1-5[8:1],,,,2-4[8:1],,,,
{16}8,,8,,1,,1,,1b-4b[8:1]/8b-5b[8:1],,2x/7x,,1b/8b/A6/E6/B5/B4/E4/A3/A5/A4/E5f,,,,
{16}2/6,,3<6[8:1],7,3,,3/7>2[8:1],,8,,7/3>8[8:1],,4,,3/7<4[8:1],,
{16}6,,3/7,,2,,8,,1/7,,6/2,,5/3,,,,
{16}1/8,,8-5[8:1],2,1,,8-3[8:1]/7,,6,,2-6[8:1]/8,,1,,2/6-2[8:1],,
{16}5,,1/6,,3,,5,,4/6,,3/7,,2/8,,,,
{16}1/2,,3,1,4,,1/5,,8/4,,7/3,,2/6,,1/5,,
{16}7/8,,6,8,5,,4/8,,6/2,,1/5,,3b>7b[8:1]/7b,,,,
{32}7/3b,6,5,4,7,6,5,4,3b/7bh,2,1,8,7b/5bh,6,5,4,3,2,1,8,7b/5bh,6,5,4,3,2,1,8,7b/3bh[32:26],,,,
{16},,,,,,,,,,,,,,,,
{32}2x/7h[8:1],3x,4x,5x,,,,,,,,,7x/5h[8:1],8x,1x,2x,,,,,,,,,2x/5x,3x/6x,4x/7x,5xh[32:5]/8xh[32:5],,,,,
{32},,,,1x,2x,3xh,,,4x,3x,2xh,,,,,2h[32:3]/E1,B1,B2,E3,,,2hx[32:3],E8,C,E4,,,2h[32:3]/E7,B6,B5,E5,
{32},,7h[32:3]/E1,B8,B7,E7,,,7hx[32:3],E2,C,E6,,,7h[32:3]/E3,B3,B4,E5,,,6h[32:3]/E1,B1,B2,E3,,,6hx[32:3],E8,C,E4,,,6h[32:3]/E7,B6,B5,E5,,,3h[32:3]/E1,B8,B7,E7,,,3hx[32:3],E2,C,E6,,,3h[32:3]/E3,B3,B4,E5,,,{64}1s5b[64:3]/8z4[64:3]*z4[64:3],,,,,,,2b/7b,,,,,,,,,
{48}1b/8b,,,,,,,,,,,8,,7,,8,,7,,8,,7,,,1bh[24:3],,,,,,6,,,6/2bh[24:3],,,,,,5,,,3bh[24:3]/5,,,,,,,
{48}A4,D5,A5,D6,A6,D7,A7,D8,A8,,,1,,2,,1,,2,,1,,2,,,8bh[24:3],,,,,,3,,,3/7bh[24:3],,,,,,4,,,6bh[24:3]/4,,,,,,
{16}5bp8[48#32:1]*q2[48#32:1],,,,,,,,,,,,,,5b>2[110#64:5],{48},,
{16},,4,,5b<8[8:1]/3b,,6,,5b/7b,,,,,,,,
{4}2b-7b[8:1]/7b,2b/7b-4[8:1],7b/4b-1b[8:1],4b/1b-6[8:1],1b/6b-3b[8:1],6b/3b-8[8:1],3b/8b-5b[8:1],8b/5b,1b-6[8:1]*-4b[8:1],1b,8b-5b[8:1]*-3[8:1],8b,
{16}1-7[8:1],,1-3[8:1],,1-5[8:1],,1,,1bV75b[8:1]*V35[8:1],,,,1b,,,,
{4}1b-5b[8:1]/7b-3[8:1],1b/7b,8b-4b[8:1]/2b-6[8:1],8b/2b,1bv3b[8:1]/5bv7[8:1],1b/5b,8bv6b[8:1]/4bv2[8:1],8b/4b,
{16}1b/5b<1[16:3],,,,1/5,,3,,5b>1[16:3]/1x,,,,5b/1,,7,,5-7[8:1]*-8[8:1]/1x,,,,
{16}5b-3[8:1]*-2[8:1],,,,5bw1[8:1]*-1[8:1],,,,5b,,,,
{4}8bx-4b[8:1]/4b-8[8:1],4b/8b,1b-5b[8:1]/5b-1[8:1],5b/1b,7bv2b[8:1]/2bv7[8:1],7b/2b,6bv3b[8:1]/3bv6[8:1],6b/3b,8bv5b[8:1]/2bv5[8:1],2/8,1bv4b[8:1]/7bv4[8:1],1b/7b,
{16}8bx-2[8:1],,8bx-6[8:1],,8bx-4-8b[8:2],,8bx,,8bx-3b[8:1]*-5[8:1],,,,,,,,
{16}2b>5[12:1]/7b,,,,6,,7,,8b<5[12:1]/4b,,,,4,,3,,
{16}2b<7[6:1]/4b,,,,4b-7[8:1],,3,,3b-8[8:1],,,,3b/4b,,,,
{48}1b<3b[6:1],,2,,3,,4,,5,,6,,1b/7b,,,,,,,,,,,,1b>7b[6:1],,8,,7,,6,,5,,4,,1b/3b,,,,,,,,,,,,
{16}8b-4[8:1],,,,8b>3[8:1],,,,8b<5[8:1],,,,1/8b-3[8:1],,,,
{16}6/8b-5[8:1],,,,8/5>2b[8:1],,2<7[8:1],,7,,,,
{8}5b-1b[8:1],3,5/4-8[8:1],3,4/2,3,7b/4b,,
{16}2pp1[8:1]/6pp5[8:1],,,,,,,,8-4[8:1]/4<7[8:1],,,,8/4x>1[8:1],,,,
{16}4/1-7[12:1]*-6[12:1],,,,
{16}1bx-3[12:1]*-4[12:1],,2,,1bx-5[12:1]*-5[12:1],,8,,1bx,,,,8/1-6[8:1],,,,
{16}3/1b-4[8:1],,,,1/4<7b[8:1],,7>2[8:1],,2,,,,
{8}4b-8b[8:1],6,4/5-1[8:1],6,5/7,6,2b/5b,,
{16}7-3[8:1]/3-8[8:1],,,,7b/3b,,,,1-6[8:1]/5v2[8:1],,1/5,,1b/5b,,,,
{16}4<8[8:2],,4,,
{8}8b>4[8:2]/4,,4bV68[8:2],,8b-4b[8:1],,4bx,,
{32}1>6[32:5],2>7[32:5],3<8[32:5],4h[32:9],,,,,1s5[8:1]*z5[8:1],,,,,,,,1bx,,,,,,,,8<3[32:5],7<2[32:5],6>1[32:5],5h[32:9],,,,,
{32}8z4[8:1]*s4[8:1],,,,,,,,8bx,,,,,,,,7-4[8:1]/3-8[8:1],,,,,,,,7/3,,,,,,,,
{32}1>6[32:5],2>7[32:5],3<8[32:5],4h[32:9],,,,,1xs5[8:1]*z5[8:1],,,,1x,,,,1xb<6b[8:1]*>4[8:1],,,,,,,,1bx,,,,,,,,
{16}1/7,,2/6,,1pp1[8:2]/7,,2/6,,1bx<1b[8:2]/7,{64},,,,,,,,,,,,A8,D8,A7,D7,A6,D6,A5,D5,A4,D4,A3,D3,A2,D2,A1,,
{32}8V64[32:5],7V53[32:5],6V42[32:5],5h[32:5],,,,,8w4b[8:1],,,,,,,,8,,,,,,,,1V35[32:5],2V46[32:5],3V57[32:5],4h[32:5],,,,,1pp5b[8:3],,,,,,,,1x/8x-4[8:1],,,,8x,,,,8bxV64[8:1]*V24[8:1],,,,,,,,8bx,,,,,,,,
{16}7/1-5b[8:1],,,,7-3[8:1]/1,,7,,7/2>5b[8:1],,,,6<1[8:1]/2,,6,,
{16}6b>3[8:1]/2,,,,6b-2[8:1],,,,6bw2[8:1],,,,6b,,,,
{32}A1,B1,Chf[32:46],,,,,,A7,B7,,,,,,,A1,B1,,,,,,,A7,B7,,,,,,,A1,B1,,,,,,,A7,B7,,,,,,,A1,B1,,,,,A7,B7,,,,,B4/A4,,,,
{32}A8,B8,Chf[32:46],,,,,,A2,B2,,,,,,,A8,B8,,,,,,,A2,B2,,,,,,,A8,B8,,,,,,,A2,B2,,,,,,,A8,B8,,,,,A2,B2,,,,,B5/A5,,,,
{32}A1,B1,Chf[32:46],,,,,,A8,B8,,,,,,,A2,B2,,,,,,,A7,B7,,,,,,,A3,B3,,,,,,,A6,B6,,,,,,,A4,B4,,,,,A5,B5,,,,,,,,,
{32}A2,B2,Chf[32:9],,,,A6,B6,,,,B8/B4/A4/A8,,,,,
{32}A7,B7,Chf[32:9],,,,A3,B3,,,,B1/B5/A5/A1,,,,,
{32}A8,B8,Chf[32:9],,,,A4,B4,,,,,B2/B6/A6/A2,,,,
{32}A5,B5,Chf[32:9],,,,A1,B1,,,,,B3/B7/A7/A3,,,,,
&inote_7=(168)
{16}2<7-3<6[8:4]/6h[8:1],,,,6h[8:1]
,,,,6h[32:3],,,7h[32:3],,,7h[16:1],,
{16}3-7<6-1-4[8:4],,8h[32:3],,,8h[32:3],,,8h[32:3],,,8h[32:3],,,8h[16:1],,
{16}5-7-3-1[8:4]/7h[8:1],,,,6h[8:1],,,,8h[8:1],,,8h[8:1],,,8h[8:1],{128}E2,B2,B3,E4,E8,B7,B6,E6,
{32}4hx[16:1],5hx[32:3],,,,,4hx[32:3],,5hx[96:5],{48},,4hx[24:1],5hx[24:1],,,4hx[24:1],5hx[24:1],,,4x>1[8:1],5hx[24:1],,,4hx[24:1],5hx[128:5],,,{128},,,,,,,,,,,,,,,,,,,,,,,,,,,,,,,,,,,,,,,,,,,,
{8}7/8,6,7/8,1,6/1,4,6/1,3,2/4,3/5,4/6,5/7,6-2b[8:1]/4z8-5[16:3],6/4,,,
{8}7/1,5,7/1,3,8/2,6,8/2,4,8/4,6/2,1/5,7/3,8b-5[8:1]*>5[8:1],8b,8b,,
{8}8h[8:1]/1,6,8/1h[8:1],3,7/8h[8:1],4,1h[8:1]/2,5,8/1,6/7,8<8[8:2]/1<1[8:2],2/3,1/8-5[8:1]*z4[8:1],,,,
{16}6/3,,7,,6/3,,7,,6/3,,2,,6/3,,2,,
{16}2/6,,3/7,,6/2-6-2[8:2],,,,2v4-2[8:1]/6v8-6[8:1],,,,,,Ch[16:1],,
{16}8,,8h[16:3],,7,,7h[16:3],,5,,5h[16:3],,6,,6h[16:1],,
{16}7/5,,7h[16:1]/5h[16:1],,8-5-8[8:2]/6-3-6[8:2],,8/6,,,,,,,,,,
{16}1,,1h[16:3],,3,,3h[16:3],,4,,4h[16:3],,2,,2h[16:1],,
{16}1/4,,1/4,,1-3[8:1]/4-2[8:1],,,,1<4[8:1]/4v6[8:1],,,,1/4,,,,
{8}1h[16:1],1h[16:1],2h[16:1]/8h[16:1],8h[16:1]/2h[16:1],3h[16:1]/7h[16:1],7h[16:1]/3h[16:1],4h[16:1]/6h[16:1],6h[16:1]/4h[16:1],
{16}3,7,3,7,2,8,2,8,{32}1,2,3,4,1,2,3,4,1,8,7,6,1,8,7,6,
{16}1bp5b[42#32:1]/5h[8:6],,,,,,,,,,,,,,,,
{64}1bq5b[8:1],8,7,6,5,,,,,,,,,,,,1bw5b[8:1],2,3,4,5,,,,,,,,,,,,A1,E1/E2,B1,B8/B2,B7/B3/Cf,B6/B4,B5,E6/E5,A5,,,,,,,,,,,,,,,,,,,,,,,,
{16}7x,8x,5,4,7x,8x,3,2,7x-4[8:1],8x,4-1[8:1]*-1[8:1],3,,,,,
{16}2x,1x,4,5,2x,1x,6,7,2x-5[8:1],1x,5-8[8:1]*-8[8:1],6
,,,,,
{16}7hx[16:1]/8hx[16:1],,7/8,1/6,2/5,,2,1,3,8,4,7,5h[8:1]/6-8[8:1]*-1[8:1],,6,,
{16}6-4[8:1]*-3[8:1],,5,5,6,,7,,{32}7b-4[8:1]/4b-1[8:1],6,5,4,3,2,1,8,7b/4b,,,,,,,,
{16}1bx/7bx,,8,8,1bx/7bx,,1x/7x,1x/7x,2x/6x,2x/6x,3x-8[16:1]/5x,3x/5x-8[16:1],3b,,5b,,
{16}1b-5b[8:1],7,3,5,1b,,8x/2x,8x/2x,7x/3x,7x/3x,6x-1[16:1]/4x,6x/4x-1[16:1],6b,,4b,,
{32}8b,7,6,,4hx[8:1],,,,8b-5[12:1],1,2,,4hx[8:1],,,,8b-3[12:1],,,,4hx[8:1],,,,8b-6[12:1]*-5[12:1],,,,4hx[8:1],,,,
{32}8b-2[12:1]*-3[12:1],,,,4hx[8:1],,,,8<4[12:1]*V64[12:1],,,,4hx[8:1],,,,8>4[12:1]*V24[12:1],,,,4hx[8:1],,,,8bw4b[8:1],,,,4hx[16:1],,,,
{16}8b,,,,1b/2b,,4,3,5,4,6,,7b/8b,,5,6,
{16}4,5,3,,8b/2b,,8h[16:1]/2h[16:1],,{24}3b/7bh[24:4],4,5,6,,8,1b/7b,2h[24:4]/6,5,4,3,,
{16}1bxV75[8:1]*p5[8:1],1bx,1bx,1bx,1bx,,2,3,2,3,2,,5/8,,7,6,
{16}7,6,7,,1/4h[16:3],,8,,{32}8,7,6,5h[32:5],4,3,2,1h[32
:5],,6,7,8h[32:9],,2,3,4h[32:5],
{32},,,,E8/E4,B7/B3,B6/B2,E6/E2,{16},,8,7,1,8,2,,3b/4b,,1,2,
{16}8,1,7,,4b/6b,,4h[16:1]/6h[16:1],,{24}7b/3bh[24:4],8,1,2,,4,5b/3b,6h[24:4]/2,1,8,7,,
{16}5bxV31[12:1]*p1[12:1],5bx,5bx,5bx,5bx,,6,7,6,7,6,,1/4,,3,2,
{16}3,2,3,,5/8h[16:3],,4,,{32}4,3,2,1h[32:5],8,7,6,5h[32
:5],,2,3,4h[32:3],,6,7,8,
{16}1b>2<7-3[4:6]/5b<6>3[4:6],,,,,,,,,,,,,,,,
{16},,,,,,,,,,,,,,,,
{16}3b-8-5[4:6]/5b<6-2[4:6],,,,,,,,,,,,,,,,
{16},,,,,,,,,,,,,,,,
{16}8b-6-8[4:6]/2bV48[4:6],,,,,,,,,,,,,,,,
{16},,,,,,,,,,,,,,,,
{16}7-5[8:1],,,,8-4[8:1],,,,1-5[8:1],,,,2-4[8:1],,,,
{16}8,,8,,1,,1,,1b-4b[8:1]/8b-5b[8:1],,2x/7x,,1b/8b/A6/E6/B5/B4/E4/A3/A5/A4/E5f,,,,
{16}2/6,,3<6[8:1],7,3,,3/7>2[8:1],,8,,7/3>8[8:1],,4,,3/7<4[8:1],,
{16}6,,3/7,,2,,8,,1/7,,6/2,,5/3,,,,
{16}1/8,,8-5[8:1],2,1,,8-3[8:1]/7,,6,,2-6[8:1]/8,,1,,2/6-2[8:1],,
{16}5,,1/6,,3,,5,,4/6,,3/7,,2/8,,,,
{16}1/2,,3,1,4,,1/5,,8/4,,7/3,,2/6,,1/5,,
{16}7/8,,6,8,5,,4/8,,6/2,,1/5,,3b>7b[8:1]/7b,,,,
{32}7/3b,6,5,4,7,6,5,4,3b/7bh,2,1,8,7b/5bh,6,5,4,3,2,1,8,7b/5bh,6,5,4,3,2,1,8,7b/3bh[32:26],,,,
{16},,,,,,,,,,,,,,,,
{32}2x/7h[8:1],3x,4x,5x,,,,,,,,,7x/5h[8:1],8x,1x,2x,,,,,,,,,2x/5x,3x/6x,4x/7x,5xh[32:5]/8xh[32:5],,,,,
{32},,,,1x,2x,3xh,,,4x,3x,2xh,,,,,2h[32:3]/E1,B1,B2,E3,,,2hx[32:3],E8,C,E4,,,2h[32:3]/E7,B6,B5,E5,
{32},,7h[32:3]/E1,B8,B7,E7,,,7hx[32:3],E2,C,E6,,,7h[32:3]/E3,B3,B4,E5,,,6h[32:3]/E1,B1,B2,E3,,,6hx[32:3],E8,C,E4,,,6h[32:3]/E7,B6,B5,E5,,,3h[32:3]/E1,B8,B7,E7,,,3hx[32:3],E2,C,E6,,,3h[32:3]/E3,B3,B4,E5,,,{64}1s5b[64:3]/8z4[64:3]*z4[64:3],,,,,,,2b/7b,,,,,,,,,
{48}1b/8b,,,,,,,,,,,8,,7,,8,,7,,8,,7,,,1bh[24:3],,,,,,6,,,6/2bh[24:3],,,,,,5,,,3bh[24:3]/5,,,,,,,
{48}A4,D5,A5,D6,A6,D7,A7,D8,A8,,,1,,2,,1,,2,,1,,2,,,8bh[24:3],,,,,,3,,,3/7bh[24:3],,,,,,4,,,6bh[24:3]/4,,,,,,
{16}5bp8[48#32:1]*q2[48#32:1],,,,,,,,,,,,,,5b>2[110#64:5],{48},,
{16},,4,,5b<8[8:1]/3b,,6,,5b/7b,,,,,,,,
{4}2b-7b[8:1]/7b,2b/7b-4[8:1],7b/4b-1b[8:1],4b/1b-6[8:1],1b/6b-3b[8:1],6b/3b-8[8:1],3b/8b-5b[8:1],8b/5b,1b-6[8:1]*-4b[8:1],1b,8b-5b[8:1]*-3[8:1],8b,
{16}1-7[8:1],,1-3[8:1],,1-5[8:1],,1,,1bV75b[8:1]*V35[8:1],,,,1b,,,,
{4}1b-5b[8:1]/7b-3[8:1],1b/7b,8b-4b[8:1]/2b-6[8:1],8b/2b,1bv3b[8:1]/5bv7[8:1],1b/5b,8bv6b[8:1]/4bv2[8:1],8b/4b,
{16}1b/5b<1[16:3],,,,1/5,,3,,5b>1[16:3]/1x,,,,5b/1,,7,,5-7[8:1]*-8[8:1]/1x,,,,
{16}5b-3[8:1]*-2[8:1],,,,5bw1[8:1]*-1[8:1],,,,5b,,,,
{4}8bx-4b[8:1]/4b-8[8:1],4b/8b,1b-5b[8:1]/5b-1[8:1],5b/1b,7bv2b[8:1]/2bv7[8:1],7b/2b,6bv3b[8:1]/3bv6[8:1],6b/3b,8bv5b[8:1]/2bv5[8:1],2/8,1bv4b[8:1]/7bv4[8:1],1b/7b,
{16}8bx-2[8:1],,8bx-6[8:1],,8bx-4-8b[8:2],,8bx,,8bx-3b[8:1]*-5[8:1],,,,,,,,
{16}2b>5[12:1]/7b,,,,6,,7,,8b<5[12:1]/4b,,,,4,,3,,
{16}2b<7[6:1]/4b,,,,4b-7[8:1],,3,,3b-8[8:1],,,,3b/4b,,,,
{48}1b<3b[6:1],,2,,3,,4,,5,,6,,1b/7b,,,,,,,,,,,,1b>7b[6:1],,8,,7,,6,,5,,4,,1b/3b,,,,,,,,,,,,
{16}8b-4[8:1],,,,8b>3[8:1],,,,8b<5[8:1],,,,1/8b-3[8:1],,,,
{16}6/8b-5[8:1],,,,8/5>2b[8:1],,2<7[8:1],,7,,,,
{8}5b-1b[8:1],3,5/4-8[8:1],3,4/2,3,7b/4b,,
{16}2pp1[8:1]/6pp5[8:1],,,,,,,,8-4[8:1]/4<7[8:1],,,,8/4x>1[8:1],,,,
{16}4/1-7[12:1]*-6[12:1],,,,
{16}1bx-3[12:1]*-4[12:1],,2,,1bx-5[12:1]*-5[12:1],,8,,1bx,,,,8/1-6[8:1],,,,
{16}3/1b-4[8:1],,,,1/4<7b[8:1],,7>2[8:1],,2,,,,
{8}4b-8b[8:1],6,4/5-1[8:1],6,5/7,6,2b/5b,,
{16}7-3[8:1]/3-8[8:1],,,,7b/3b,,,,1-6[8:1]/5v2[8:1],,1/5,,1b/5b,,,,
{16}4<8[8:2],,4,,
{8}8b>4[8:2]/4,,4bV68[8:2],,8b-4b[8:1],,4bx,,
{32}1>6[32:5],2>7[32:5],3<8[32:5],4h[32:9],,,,,1s5[8:1]*z5[8:1],,,,,,,,1bx,,,,,,,,8<3[32:5],7<2[32:5],6>1[32:5],5h[32:9],,,,,
{32}8z4[8:1]*s4[8:1],,,,,,,,8bx,,,,,,,,7-4[8:1]/3-8[8:1],,,,,,,,7/3,,,,,,,,
{32}1>6[32:5],2>7[32:5],3<8[32:5],4h[32:9],,,,,1xs5[8:1]*z5[8:1],,,,1x,,,,1xb<6b[8:1]*>4[8:1],,,,,,,,1bx,,,,,,,,
{16}1/7,,2/6,,1pp1[8:2]/7,,2/6,,1bx<1b[8:2]/7,{64},,,,,,,,,,,,A8,D8,A7,D7,A6,D6,A5,D5,A4,D4,A3,D3,A2,D2,A1,,
{32}8V64[32:5],7V53[32:5],6V42[32:5],5h[32:5],,,,,8w4b[8:1],,,,,,,,8,,,,,,,,1V35[32:5],2V46[32:5],3V57[32:5],4h[32:5],,,,,1pp5b[8:3],,,,,,,,1x/8x-4[8:1],,,,8x,,,,8bxV64[8:1]*V24[8:1],,,,,,,,8bx,,,,,,,,
{16}7/1-5b[8:1],,,,7-3[8:1]/1,,7,,7/2>5b[8:1],,,,6<1[8:1]/2,,6,,
{16}6b>3[8:1]/2,,,,6b-2[8:1],,,,6bw2[8:1],,,,6b,,,,
{32}1xv4[22.4#64:1]*v4[22.4#64:1],A1,B1,Chf[32:57],,,,,7xv4[25.8#64:1]*v4[25.8#64:1],A7,B7,,,,,,1x,A1,B1,,,,,,7x,A7,B7,,,,,,1x,A1,B1,,,,,,7x,A7,B7,,,,,,1x,A1,B1,,,,7x,A7,B7,,,,B4/A4,,,,
{32}8xv5[22.4#64:1]*v5[22.4#64:1],A8,B8,Chf[32:57],,,,,2xv5[25.8#64:1]*v5[25.8#64:1],A2,B2,,,,,,8x,A8,B8,,,,,,2x,A2,B2,,,,,,8x,A8,B8,,,,,,2x,A2,B2,,,,,,8x,A8,B8,,,,2x,A2,B2,,,,B5/A5,,,,
{32}1x,A1,B1,Chf[32:57],,,,,8x,A8,B8,,,,,,2x,A2,B2,,,,,,7x,A7,B7,,,,,,3x,A3,B3,,,,,,6x,A6,B6,,,,,,4x,A4,B4,,,,5x,A5,B5,,,,,,,,
{32}2xbv8[112#64:1]*v8[112#64:1],A2,B2,Chf[32:9],,,6xbv4[224#64:1]*v4[224#64:1],A6,B6,,,,B8/B4/A4/A8,,,,
{32}7xbv1[112#64:1]*v1[112#64:1],A7,B7,Chf[32:9],,,3xbv5[224#64:1]*v5[224#64:1],A3,B3,,,,B1/B5/A5/A1,,,,
{32}8xbv2[112#64:1]*v2[112#64:1],A8,B8,Chf[32:9],,,4xbv6[224#64:1]*v6[224#64:1],A4,B4,,,,B2/B6/A6/A2,,,,
{32}5xbv3[112#64:1]*v3[112#64:1],A5,B5,Chf[32:9],,,1xbv7[224#64:1]*v7[224#64:1],A1,B1,,,,B3/B7/A7/A3,,,,
