&title=S.A.T.E.L.L.I.T.E.
&artist=かめりあ
&first=0
&demo_seek=80.5
&lv_2=2
&des_2=Lv Cat
&inote_2=
(150){4},,,,,,,,,,,,,8h[1:1],
,,,,,,,7h[1:1],
,,,,,,,6h[1:1],
,,,,,,,5h[1:1],
,,,,,,,4,
,,,4,
,,,3,
,,,3,
,,,2,
,,,2,
,,,1,
,,,1/8,
,,,7,
,,,7,
,,,8,
,,,8,
,,,1,
,,,1,
,,,2,
,,,2,
,,,3/4,
,,,4/3,
,,,5/4,
,,,5/4,
,,,6/5,
,,,6/5,
,,,8/7,
,,,8/7,
,,,8b/1b,
,,,8/1,
,,,1/2,
,,,1/2,
,,,3/4,
,,,3/4,
,,,4/5,
,,,5h[4:3]/4h[4:3],
,,,6x,
,6,
,7,,7/8,
,1,,1,
,2,,3/4,
,5<8[1:1],,,,,,,,1>4[1:1],
,,,,,,,5b/6b,
,5/6,
,7/6,,8/7,
,8/7,,1/8,
,1/2,,1/2,
,2/3,,3/4,
,4/5,,5/4,
,5/6,,7/6,
,8h[2:1]/7h[2:1],,,,1b,
1,2,
2,3,3,4/3,
,5,5,6,
6,7,7,8/7,
,1,1,2/8,
,3,3,4/3,
,5,5,6/4,
,7,7,8/7,
,B8,B7,B6/B5,
,B1,B2,B4/B3,
,B8,B7,B6,
B5,B4,B3,C,
,B8,B7,B6/B5,
,B1,B2,B3/B4,
,B1,B2,B3,
B4,B5,B6,C,
,8x,8,7,
7,6,6,5/4,
,4,4,3,
3,2,2,1/8,
,8-5[1:1],,,,,,,,4-1[1:1],
,,,,,,,Cfh[1:2],
E
&lv_3=6+
&des_3=Lv Cat
&inote_3=
(150){4},,,,,,,,,,,,,6h[1:2],
,,,,,,,5h[1:2],
,,,,,,,4h[1:2],
,,,,,,,3h[1:2],
,,,,,,,2,
,2,
,1,,1,
,8,,8,
,7,,7,
,6,,6,
,5,,5,
,4,,4,
,4/3,,4/3,
,2,,2,
,3,,3,
,4,,4,
,5,,5,
,6,,6,
,7,,7,
,8,,8,
,1/8,,7/2,
,B8,B7,B6/B5,
,B1,B2,B4/B3,
,B8,B7,B6,
B5,B4,B3,C,
,B1,B2,B3/B4,
,B8,B7,B5/B6,
,B1,B2,B3,
B4,B5,B6,C,
,8x,8,8,
,7,7,7,
,6,6,5,
5,4,4,3/4,
,2,2,2,
,1,1,1,
,8,8,7,
7,6,6,6x/5x,
,4>1[4:3],,,,,,,,8<5[1:1],
,,,,,,{1}4-1[1:1],
{4},,,,,8-5[1:1],
,,,,,,,5b/4b,
5/4,3,
3,2/1,2/1,3/8,
,7,7,6,
6,5/4,5/4,6/3,
,2,2,3,
3,4/5,4/5,6/3,
,7,7,8,
8,1/2,2/1,3/8,
,4,4,5,
5,3,3,6/4,
,7,7,1,
1,8,8,7/1,
,8,7,6/5,
,4,3,1/2,
,Cfh[2:3],,,,,,,,8bx,
8,7,
7,6/5,6/5,6/5,
,4,4,3,
3,2/1,2/1,2/1,
,8,7,6,
5,4,3,2/1,
,1,2,3,
4,5,6,7/8,
,8/7,8/7,6,
6,5/4,5/4,5b/4b,
,4/3,4/3,2,
2,1/8,1/8,1b/8b,
,7,6,5,
4,3,2,1bx/8bx,
,2,3,4,
5,6,7,8bx/1bx,
,8bqq5[4:7]/1bpp4[4:7],
E
&lv_4=11
&des_4=Lv Cat
&inote_4=
(150){4},,,,,,,,,,,,,6h[1:2],
,,,,,,,4h[1:1],
,,,2h[2:1],
,1,
,7h[1:1],,,,1,
,3,
,5qq2[1:1]*pp8[1:1],,,,,,1,
{8}2,2h[4:1],,8h[4:1],,3h[4:1],,7h[4:1],
,4h[4:1],,5,,,{4}8,
{8}7,7h[4:1],,1h[4:1],,6h[4:1],,2h[4:1],
,5h[4:1],,4,,,{4}2,
{8}3,3h[4:1],,1h[4:1],,4h[4:1],,8h[4:1],
,5h[4:1],,6,,,{4}7,
{8}6,6-3[4:1],,,,2,{4}2-7[4:1],
,6x,,8,
{8}7,7h[4:1],,1h[4:1],,6h[4:1],,2h[4:1],
,5h[4:1],,4,,,{4}1,
{8}2,2h[4:1],,8h[4:1],,3h[4:1],,7h[4:1],
,4h[4:1],,5,,,{4}7,
{8}6,6h[4:1],,8h[4:1],,5h[4:1],,1h[4:1],
,4h[4:1],,3,,2,,3,
{2}3-6[4:1],{8}7,7-2[4:1],,,,,{4}4xh[2:1]/3xh[2:1],
,,5b/2b,
{8}7bx/4bx,8,7,6,5,2,
3,1/7,,8,7,6/2,3,4,
7/5,8h[8:3],,5,4,3,2,1/7,
6,8/2xh[2:1],{16},,,4x,,,{8}5x,{16}7xh[8:3],,,5x,
,,{8}4x,6/3,1,2,3,4,7,
6,8/2,,1,2,3/7,6,5,
2/4,1h[8:3],,4,5,6,7,8/2,
3,1/7xh[2:1],{16},,,5x,,,{8}4x,{16}2xh[8:3],,,4x,
,,{8}5x,6bx/3bx,5,4,5,6x/2x,7,
1,7,2x/8x,1,7,1,6x/3x,4,
5,4,5x/2x,1,2,3,7x/4x,8,
7,6,{4}5xh[4:1],4h[4:1],5xh[4:1],
4b,{8}6bx/3bx,1,8,1,2x/6x,3,
5,3,6x/4x,5,3,5,2x/7x,8,
1,8,1x/6x,5,6,7,3x/8x,4,
3,2,{4}1x-5[8:1],7,8x-4[8:1],
1b,3>7V13[8:5],7,6,
5,6<2V86[8:5],2,3,
4,4-8>3[8:5],8,7,
6,5-1<6[8:5],1,2,
3,{8}5,5,3,3,6/4,6,
3/5,3,7,7,1,1,8/2,8,
1/7,1,{4}8b<1b[8:5],,,,Cfh[2:1],
,B7/B2/E8/E2,
,8b/1b,6/4,4/2,
1/8,7/4,5/2,8/2,
6/5,4/2,7/1,8/6,
7/5,4/2,8/1,6bv8[8:1]/3bv1[8:1],
{8},,,8b/1b,{4}1b/8b,7/4,
6/5,2/8,1/3,2/4,
3/6,5/8-5[8:1],2,5/1-4[8:1],
7,8<5[8:1]/5>2[8:1],{16},,,,1bx,,,1bx,
,,,,2x/4x,4x/2x,,,{4}5/7,1/8,
{8}3/4,5,{4}6/7,1/2,3-1[8:1]/8-4[8:1],
,2x/5x,8/7,6/4,
{8}1/8,1/8,{4}7bV14-6b[8:5]/2bV85-3b[8:5],{8},,,,,,7x,
{16}4,4,,6,{8}6,5-1[8:1]/3-1[8:1],5/3,
,,1x,{16}8,8,,2,{8}2,1-5[8:1]/7-5[8:1],1/7,
,,{4}8b<5b[8:1]*p4b[8:1],,1b>4b[8:1]*q5b[8:1],
,Cf/8b<1[2:1],,,,1b-5[8:1],
7-2[8:1],4-8[8:1],
7-5[8:1],1>4[8:1],8<5[8:1],{16}1x,,,1x,
,,{8}6x/3x,{4}5x/4x,{8}7x/2x,{16}8,1,8,1,{8}8,
7/2,6/3,{4}5-8[8:1]/4-1[8:1],,2x/7xw3[8:1],
,,2b-5[8:1],8-4[8:1],
3-8[8:1],7<4[8:1],1-5[8:1],8-4[8:1],
2,{8}3/4,5/2,{4}6b/1b,{8}6/5,4/7,
{4}3b/8b,1w5[8:1],Cf,8-5[8:1]*-3[8:1],
Cf,{8}6bx/2bx,3,4-8[8:1],4,7,6,
1,8/7,6,5-1[8:1],5,2,3,8,
1/2,3h[4:1]/8h[4:1],,,{4}2>4[8:1],6<1[8:1],
2-5[8:1],8bqq5b[2:1]*pp3b[2:1],{8},,,,,,4,
3,2,1/8,7,6,
5/4,6/3,2-7b[8:1],2,6-3b[8:1],6,2<7b[8:1],2,
6>3b[8:1],6,7,8,1,2,3,4,
5,6bh[2:1]/3bh[2:1],,,,,{4}5/4,
Cf/E7/E3,8bxs4V68[8:15]/1bxz5V31[8:15],
E
&lv_5=13+
&des_5=Lv Cat
&inote_5=
(150){4},{8},,,,,,,,,,,,,,,,,,,E1,
,,,,{4}1h[8:11],
{8},E8,,,,,,,,E7,
,,,,{4}3h[8:3],
{8},E6,,,,,{4}6h[2:1],
{8},E5,,,,,{4}8-5[2:1],
{8},E4,,,,,{4}5h[2:1],
{8},E3,,,,,{4}5q7[2:3],
{8},C,,,,,{4}1>5[2:1],
,,,8p5[8:11]/4p1[8:11],
,,,,,,,4/8>1-4<5-8[1:1],
,,,8>4[2:1],
,4-6b[4:1],
,7-3>8[1:1],,,,5-1[4:1],
,8-6[4:1],
,2-4<5-1<8-6b[1:1],,,,Ch[2:1],
{16},,,,8,,,7/1,
,,{8}4,{4}5V38<6[1:1]/3V58>2[1:1],,,,,,5<6-8[4:1],
,1>2-4[4:1],{16},,,,1,,,8,
,,{8}6/4,{4}5<7-1[8:5],,3-5b[8:1],
,1pp6[2:3],,,,4>7[2:1],
,,,7-4b[4:1]/8-3[2:1],
,,Ch[4:3],
,,B8/B1/E8/E2,
{64}D1/E1/D5/E5,Cf,,,,,,,,,,,,,,,{8}1bxh[2:3],7x,{16}E6,B5,{8}B4,{16}B8,B7,{8}E7,
8,8,{16},,A6,D6,{8}A5,{16}D8,A7,{8}D7,8,
7/2,5/4,6xh[8:7],2,{16}E2,B2,{8}B3,{16}B8,B1,{8}E2,
3,3h[16:5],{16},,,5h[16:3],,,{8}1h[8:1],{16}7h[16:3],,,4,
,,{8}6/2h[1:1],,8,{16}E7,B6,{8}B5,{16}E1,B8,{8}B7,
5,5h[4:3],{16},,E8,B8,{8}B1,{16}B3,B4,{8}E5,2,
6/1,7/8h[8:7],,1,{16}B1,B8,{8}E8,{16}E6,B5,{8}B4,
6x,6xh[8:7]/8x>2-4<5q3[8:5],,,,,,,,,8b/2bh[4:3],
7,{16}7,6,{8}5,{16}8,7,{8}6,
1,1/8h[8:5],{16},,3,4,{8}5,{16}1,2,{8}3,8,
6/2,7/4,2/5h[4:3],3,{16}1,2,{8}3,{16}8,1,{8}2,
8-2[8:1],8,{16},,,6-8[8:1],,,{8}2,{16}3-5-1[4:1],,,8,
,,{8}6bh[8:7],,2,{16}1,2,{8}3,{16}3,4,{8}5,
5,7/4h[4:3],{16},,1,8,{8}7,{16}7,6,{8}5,5,
6/3,1h[8:1]/8h[8:1],,5/2,{16}2/5,3/6,{8}4/7,{16}3/6,4/7,{8}5/8,
1-6[8:1],1,{4}5b-2>4-8b[8:5],,5x-7[8:1],
,8/7,2/1,5/6,
{8}4/3,{16}1,2,{4}3/4,7/6,{8}5/8,2,
3/7,{16}8,7,{4}6/5,2/3,4/5,
{8}1/8,{16}3,4,{8}5/6h[8:1],5h[8:1],7h[8:1],3h[8:1],6h[8:1],2h,
5b/4b,7b/2b,8x/1,1,1/5x,1,1/4x-8[8:1],1,
1/4x,1,1/8x,8,8/4x,8,8/5x-2[8:1],8,
8/5x,8,{16}7,1,7,1,8,2,8,2,{32}7x,6x,5x,4x,1x,2x,3x,4x,
8x,7x,6x,5x,8x,1x,2x,3x,{4}Cfh[2:1],{32},,,,,,E2,E1,{4}E8,
1b-4[8:1],1b/7bV53[8:1],7/2-6[8:1],2/8<5[8:1],
8/4p8[8:1],4/7p3[8:1],7/1>3-5b[8:1],{8}8/1,7,
6/4,7/3,{4}2/1v4[8:1],1/8<5[8:1],8/4>3-8[8:1],
4/6-1b[8:1],6/2h[4:1],{8}1,7/3,{16}6b/5b,,,1b/2b,
,,{8}7b/Cf,,7b/2b,{4}8b/1b>2-4[8:1],1/6<1[8:1],
6/3v8[8:1],3/7-5>4[8:1],7/1<8-4-2-7b[8:3],7,
5q1[8:1],5/2v4[8:1],2/1V75[8:1]*V75[8:1],1/3-7b[8:1],
3/8-4[8:1],8/1xh[4:1],{16}8x,{32}2,3,4,8,7,6,{16}1b/5b,,,3b/7b,
,,,,2bx/8bxv5[8:1],2bx/8bx,,,{4}8/1-6[8:1],1/7-4[8:1],
{8}7/8,2,{4}5/3-8[8:1],3/7<4[8:1],7v1[8:1]/3v5[8:1],
,6x/2x-6[8:1],2/8V64[8:1],8/3v1[8:1],
3/6,{8}2b/8b,{16}2bx/8bx,3bx/7bx,{8}4bx/6bx,5bxV38[4:1]*V72[4:1],6bx/4bx,5bx,
,,1/2,{16}3/8,8/3,,2/1,{8}1/2,8/3-1v4[8:1],1/2,
,,8/7,{16}6/1,1/6,,7/8,{8}8/7,1/6V85[8:1],8/7,
{32},,,,,,,,1x,,,7x,6x,5x,1x,2x,{4}8b/3bx,{32}8x,,,2x,3x,4x,8x,7x,
{4}1b/6bx,4b/5b<4[2:1],{32},,,,,E8,B8,B1,{4}E2f,
{8},,5b/4b,6/2,{16}3/5v8[8:1],6/2,{8}7/1,{16}3,2,{8}1,
7/1,5/3,{16},,7/1v4[8:1],2/6,{8}3/5,{16}7,6,{8}5,8,
7/1,6/2,{4}3-8[8:1]/5-8[8:1],5/3,{16}8b/2b,8b/2b,{8}8b/2b,
6b/4b,7b/3b,{4}2/1b-6[8:1],8/1-3-7-4-6[8:5],1x/2x,
{8},8x,{16},,,,7/8,6/1,{8}5/2,{16}8/7-4[8:1],6/1,{8}5/2-5[8:1],
{16},,,,,,1/2,3/8,{8}7/4,{16}1/2,3/8,{8}7/4-1[8:1],8-5[8:1],
,,,2bx/1bx,{32}8x/3x,7x,6x,5x,{8}4x,8bx/7bx,{32}6x/1x,2x,3x,4x,
{4}5xw1[8:1],Cf,{32},,,,7bx,6x,5x,4x,{4}2bx-7[8:1]/3bx-6[8:1],
{32}D3,E3,C,E7,{8}D7f,{16}8bx/7bx,8bx/7bx,,6/1,4-7[8:1],2,{8}3,3/4v1[8:1],2,
4,{16}8x,{32}7x,6x,{8}5x/2x,{16}1,2,{8}8,{16}4,3,{8}6b/5b,8b/7b,
2b/1b,Cf/B4/B3/E4,{16},,,,8/3,2/7,{8}1/6,{16}6/1,7/2,{8}3/8,
{4}4/6-2[8:1],6bp3b[8:5]*q1b[8:5],{8},,,,,,2bx/8bx,
4/3,{16}7,5,{8}6,{16}7,1,8-4[8:1],2,
{8}6,8/3,2,1/5,8/3,{16}2,2,5,5,3,3,
6,6,4,4,5,1,6,2,5,1,4,2,5x/1x,2x/6x,7x/3x,4x/8x,
7x/3x,6x/2x,{8}5x-2b[8:1]/1x-6b[8:1],{32},,,,,,,,,,,,,,E7,C,{4}E3,
{1}Cf/1bw5b[1:2],
E
