&title=ルートヴィヒ美術館
&artist=楽園市街
&first=0.63
&des=Team“幻象”
&lv_5=13+
&inote_5=(127)
{24}6,7,8x-4pp6[12:5]*-4qq2[12:5],1,,,{4},,,5/7h[8:7],
4,3,
2,7/1h[4:3],6,5,
4,3/5h[8:7],B4,E3,
B1,8h[4:3],C,7-3[8:1],
7b,2>4[8:1],2/1,{8}7-5[8:1],8,
{4}7,3-5[8:1],3/6,{8}7-4[8:1],7,
8-3[8:1],8,{4}6<1[8:1],6/5,3>8[8:1],
3/4,6-2[8:1]/5-1[8:1],5/6,{8}3-8[8:1],3,
7-4[8:1],7,{16},,3,3,,7,{8}7,{16}2,2,,6,
{8}6,{16}3x,4xh[8:1],,6x,{8}5xh[8:1],4,3,{16}2z6[4:1],
,,6,2,,,,8,,,7h[16:3],{8},,3h[8:1],6h[8:1],
{16}4-1[8:1],4,,,{4}5/4-7[8:1],4/3,{8}4/8,{16}1,2,
,4,{8}7,5h[4:1],6,7h[4:1],6,{4}5h[4:1],
{8}4,{16}3,4,{8}3,2,2,6-2V85[4:1],6h[8:3],{16},,
,,{8},4h[4:1],3,2h[4:1],3,{4}4h[4:1],
{8}5,{16}6,5,{8}6,7,7,3-8-6-4[4:1],3h[8:3],{16},,
,,{8},5/4h[8:1],6,4/5h[8:1],3,{4}5h[4:1],
{8}4,{16}2h[16:1],1h[16:1],{8}3,3,7-5-2-8-4[8:3],6,5h[8:3],{16},,
,,{8},7h[8:1],8,2h[8:1],1,{4}8h[4:1],
{8}1,{16}2,7,{4}1h[8:1]/5h[8:1],3h[8:1]/7h[8:1],2h[8:1]/6h[8:1],
4h[8:1]/8h[8:1],{8}2b/7b<5[8:1],8,7/2>4[8:1],1,2/8-4-6[16:3],7,
8-4-2[16:3],1,{8}8,7,7>3[4:1],6,{4}5,
{8}8-4[8:1],7/1,{4},{8}1-5[8:1],2/8,{4},
{8}7qq5[8:1]/1pp3[8:1],8,{4},{8}8-4[8:1]/2-6[8:1],1,{4},
{8}5,4/6,3b/7b-1[8:1],8,7/3-5[8:1],4,6-2[8:1],6,
{16}3,4,{8}5v2[8:1],4,{16}6/5v8[8:1],,{8}6,54,{8}4,3,
{8}4-7[8:1]/3-8[8:1],5/2,{4}3/4,{8}6-2[8:1]/5-1[8:1],4/7,{4}6/5,
{8}3-7[8:1],7-3[8:1],5,5,8-4[8:1],4-8[8:1],2,2,
1p5b[8:1],1,{4}7q5qq3[8:5],,,,
{1}
{16}2b/4x,,,4,3h[2:1],,,,4,,,,4-6[8:1],,,,2-4[8:1],,,,6,,,,7/5h[8:3],,,,6-4[8:1],,,,
{4}3v5[6:1],2-4[8:1],6v4[6:1],7,5/3h[8:1],4/6h[8:1],5V31[4:1]/3h[8:1],5/7,
8x<1[8:9]*<1[8:9],4,4,4pp7[8:3],,,{16}8,,,71,,,,,
7/5,,,5,6h[4:1],,{24}5,4,3,{16}2-5[8:1],,,,4-7[8:1],,,,
2,,B3/E4,,6-4v5-3[8:3],B7/E8,,,,,,,,,,,
{4}1b<6[8:1],1x>4[8:1],1<6[8:1],1x>4qq5[8:3],B2/B3/E3,8x,{16}7h[8:1],,5,6,4h[8:1],,1,,8h[8:1],,4,,2x,,6,,7h[8:1],,3,,1x,,5,,7-4[8:1],,4pp6[6:1],,7x>2[6:1],,1,,,,,,{24}5x,6x,7x,1,2,3,
{4}8b>3[8:1]/4,8x<5[8:1],{8}8>3[8:1],2,8x<5pp4[8:3],6,{4}8/B2/B3/E3,1x,{16}2h[8:1],,4,3,5h[8:1],,8,,1h[8:1],,5,5,7x,,3,,6h[8:1],,2,2,8x,,4,,2-5[8:1],,5qq4[4:1],,2x<6[4:1],,8,,,,,,5xh[4:1],,,,7,,,,6,,,,5h[8:1],,4,6,,5,3h[4:1],,,,,,2,,,,
{8}5h[4:1],,1-4[8:1],,
1b-6[8:1]/7,8,1/4-7[8:1],3,2/4-1[8:1],3,4/8-3[8:1],7,
8-5[8:1]/6,7,8/4,3,2-5[8:1],1-6[8:1],2,1,
5,8,34,1,6-8[8:1],1-5[8:1],6,1,6,8,34,1,8-4[8:1],3-1[8:1],8-5[8:1],3,
8b-3[8:1],1,8/5-2[8:1],6,7/5-8[8:1],6,5/1-6[8:1],2,
1-4[8:1]/3,2,1/5,6,7pp8[8:1],8<5[8:1],7,,
4,1,65,8,3-1[8:1],8-4[8:1],3,8,3,1,65,8,1-6[8:1],6pp3[4:1],1,,
{4}5xh[4:3],B2/A2,,B3/A3,4h[4:3],B7/A7,,B6/A6,
4h[16:11]/2-5[8:1],B2/A2,2>5[8:1],B3/A3,5h[16:7]/7-4[8:1],B7/A7,7qq5[6:1],B6/A6,
{8}3x/4x,3,5,6,{16}4h[16:3],,,3h[16:3],,,2h[8:3],,,,,,1,,,,{12}8,3,6,4,7,2,
{24}5x,3,5,3,5,3,{12}5,3,4h[12:1],{16}2,6,2,6,{24}3,5,3,5,3,5,
{4}4h[4:1],,{8}4<2[32:7],6h[8:1],,,
{8}8x,7,A6/B6/1,2,8,7,A6/B6/1,2,8,{24}7,6,5,{8}4x/1x>4[8:1]*q5pp4[8:3],2,1,,,,
{8}6h[8:1],5,A7/B7/4h[8:1],5,6h[8:1],5,{16}A7/B7/4,4,,,
{8}3h[8:1],4,A2/B2/5h[8:1],4,3h[8:1],4,{16}A2/B2/5,5x,5x,5x,
{16}1,,8,1,62,,26,,4,37,,5,26,,26,,
3h[8:1],,5,4,6h[8:1],,3,5,2h[8:1],,6,4,7,7,5,5,
{16}8<5[8:1],,4,4,8,,2,,1>4[8:1],,5,5,1,,7,,
8h[4:1],,6,,1h[4:1],,3,,5,1,5,1,{32}5-8[12:1],6,7,8,1x,2x,3x,4x,
{1}5xbq7[4:5]/1bq3[4:5],,,,
{8}5p4[2:3],,E1,,,,E2,,
{8},C,E3,,,,E4,,
{8}1,,E5,,,,E6,2,
{8},,E7,3,,,E8,,
{8}6h[8:1]/3,,6h[8:1]/4,,6h[8:1]/5,,6h[8:1]/4,,
{8}3h[8:1]/6,,3h[8:1]/5,,3h[8:1]/4,,3h[8:1]/5,,
{8}5h[8:1]/6,7,4h[8:1]/3,2,5h[8:1]/6,7,{16}3/E1,E2,E3,E4,
{8}2z6[8:10]/E5,,,,,,,,
{8},,,,,,,,
{8},,,,,,,,
{16}2,3,4,5h[16:7],6,7,8,,{16},,1w5[8:1],,,,1b/Cf,,
{16},,7,,2-5[8:1],,38,,2/1-6[8:1],,8,,1-4[8:1],,2,,
{16}1/5-8[8:1],,6,3,5,,2h[8:3],,{24}1,,,3,,,3,4,5,6,7,8,
{16}1<6[8:1]/4,,3,,1/2,,1,,8-3[8:1],,7-4[8:1],,8,,7,,
{16}2>5[8:1],,1,7,2,,8-5[8:1],,7,,8/2-5[8:1],,3,,8/2,,
{16}6h[8:1],,2,2,7-4[8:1],,61,,7/8-3[8:1],,1,,8-5[8:1],,7,,
{16}8/4-1[8:1],,3,6,4,,7h[8:3],,{24}8,,,6,,,6,5,4,3,2,1,
{16}8>3[8:1]/5,,6,,8/7,,8,,1-6[8:1],,2-5[8:1],,1,,2,,
{16}7<4[8:1],,8,2,7,,1-4[8:1],,4,,1-6[8:1]/7,,6,,1/2,,
{16}4h[8:1],,7,7,2-5[8:1],,38,,2/1-6[8:1],,8,,1-4[8:1],,2,,
{16}1/5-8[8:1],,6,3,5,,2h[8:3],,{24}7,6,5,4,,,3,4,5,6,7,8,
{16}1<6[8:1]/4,,3,,1/2,,1,,8>3[8:1]/5,,6,,8/7,,8,,
{16}2>5[8:1],,1,7,2,,8-5[8:1],,7,,8/2-5[8:1],,3,,8/2,,
{16}6h[8:1],,2,2,7-4[8:1],,61,,7/8-3[8:1],,1,,8-5[8:1],,7,,
{16}8/4-1[8:1],,3,6,4,,7h[8:3],,{24}2,3,4,5,,,6,5,4,3,2,1,
{16}8>3[8:1]/5,,76,,8/7,,8,,1<6[8:1]/4,,32,,1/2,,,,
{16}3,5,4,6,5h[8:1],,,,6-2[8:1],5,7,5,6h[8:1],,,,
{16}6,4,5,3,4h[8:1],,,,2-6[8:1],1,3,1,2h[8:1],,,,
{8}7-5[8:1],,4,,7-4[8:1],8,3,,
{8}7-5[8:1],,4,,7-4[8:1],6,3,,
{16}2,1,8,7,4,5,6,7,3,2,1,8,7,6,5h[8:1],,
{16}7,8,1,2,5,4,3,2,6,7,8,1,2,3,4h[8:1],1,
{8}2-4[8:1],,5,,2-5[8:1],1,5q3[4:1]*q7[8:3],,
{8},,
